Альфа Доґ (Альфа Дог) / Alpha Dog (2006) 1080p Ukr/Eng | Sub Eng

Нові коментарі

Нова тема   Відповісти
Автор Повідомлення
Anonymous 







2020-02-29 14:47  
Альфа Доґ (Альфа Дог) / Alpha Dog (2006) 1080p Ukr/Eng | Sub Eng

Альфа Доґ (Альфа Дог) / Alpha Dog (2006) 1080p Ukr/Eng | Sub Eng


Жанр: біографічний, кримінальний, драма
Країна: США



Кінокомпанія: Sidney Kimmel Entertainment, A-Mark Entertainment, Alpha Dog LLC See
Режисер: Нік Кассаветіс / Nick Cassavetes
Актори: Брюс Вілліс / Bruce Willis, Метью Беррі / Matthew Barry, Еміль Гірш / Emile Davenport Hirsch, Фернандо Варґас / Fernando Vargas, Вінсент Картайзер / Vincent Paul Kartheiser, Джастін Тімберлейк / Justin Randall Timberlake, Шон Гетосі / Shawn Hatosy, Алекс Соловітц / Alex Solowitz, Ґарі Дін Стентон / Harry Dean Stanton

Сюжет:
Одне неправильно ухвалене рішення, фатальна помилка, невдалий хід - і життя успішного драг-дилера летить шкереберть. За законом кругової поруки один за іншим гинуть і всі його друзі. Менш ніж за добу Джоні стає легендою кримінального світу. Тепер, крім усього іншого, йому приписують жорстоке вбивство...


Тривалість: 01:57:22
Якість: 1080p
Відео:
кодек:
розмір кадру: 1920x818
бітрейт: 7018 кб/с

Аудіо # 1:
мова: українська
переклад: багатоголосий закадровий
кодек: 2.0
бітрейт: 192 кб/с

Аудіо # 2:
мова: англійська
переклад: оригінал
кодек: 5.1
бітрейт: 1509 кб/с

Субтитри:
мова: англійська
тип: програмні (м'які)
формат: *.srt
Info
General
Unique ID : 238136329776905921794666059154582385364 (0xB327638AC7F6D838B82A54426F0FB2D4)
Complete name : H:\Toloka\2020\Alpha Dog (2006) 1080p.
Format :
Format version : Version 4
File size : 7.34 GiB
Duration : 1 h 57 min
Overall bit rate : 8 947 kb/s
Encoded date : UTC 2020-02-29 11:40:19
Writing application : v6.1.0 ('Old Devil') built on Mar 4 2013 09:10:42
Writing library : libebml v1.3.0 + v1.4.0

Video
ID : 1
Format : AVC
Format/Info : Advanced Video Codec
Format profile : [email protected]
Format settings : CABAC / 4 Ref Frames
Format settings, CABAC : Yes
Format settings, RefFrames : 4 frames
Codec ID : V_MPEG4/ISO/AVC
Duration : 1 h 57 min
Bit rate : 7 068 kb/s
Width : 1 920 pixels
Height : 818 pixels
Display aspect ratio : 2.35:1
Frame rate mode : Constant
Frame rate : 24.000 FPS
Color space : YUV
Chroma subsampling : 4:2:0
Bit depth : 8 bits
Scan type : Progressive
Bits/(Pixel*Frame) : 0.188
Stream size : 5.80 GiB (79%)
Title : -- STarankov
Writing library : core 142 r2431 ac76440
Encoding settings : cabac=1 / ref=4 / deblock=1:-1:-1 / analyse=0x3:0x113 / me=umh / subme=9 / psy=1 / psy_rd=1.00:0.15 / mixed_ref=1 / me_range=32 / chroma_me=1 / trellis=2 / 8x8dct=1 / cqm=0 / deadzone=21,11 / fast_pskip=1 / chroma_qp_offset=-3 / threads=6 / lookahead_threads=1 / sliced_threads=0 / nr=0 / decimate=1 / interlaced=0 / bluray_compat=0 / constrained_intra=0 / bframes=8 / b_pyramid=2 / b_adapt=2 / b_bias=0 / direct=3 / weightb=1 / open_gop=0 / weightp=2 / keyint=230 / keyint_min=23 / scenecut=40 / intra_refresh=0 / rc_lookahead=40 / rc=crf / mbtree=0 / crf=19.0 / qcomp=0.60 / qpmin=0 / qpmax=69 / qpstep=4 / vbv_maxrate=40000 / vbv_bufsize=50000 / crf_max=0.0 / nal_hrd=none / filler=0 / ip_ratio=1.40 / pb_ratio=1.30 / aq=1:1.00
Language : English
Default : Yes
Forced : No

Audio #1
ID : 2
Format : AC-3
Format/Info : Audio Coding 3
Commercial name : Dolby Digital
Codec ID : A_AC3
Duration : 1 h 57 min
Bit rate mode : Constant
Bit rate : 192 kb/s
Channel(s) : 2 channels
Channel layout : L R
Sampling rate : 48.0 kHz
Frame rate : 31.250 FPS (1536 SPF)
Bit depth : 16 bits
Compression mode : Lossy
Stream size : 161 MiB (2%)
Title : UKR (1+1)
Language : Ukrainian
Service kind : Complete Main
Default : Yes
Forced : Yes

Audio #2
ID : 3
Format :
Format/Info : Digital Theater Systems
Codec ID : A_DTS
Duration : 1 h 57 min
Bit rate mode : Constant
Bit rate : 1 509 kb/s
Channel(s) : 6 channels
Channel layout : C L R Ls Rs LFE
Sampling rate : 48.0 kHz
Frame rate : 93.750 FPS (512 SPF)
Bit depth : 16 bits
Compression mode : Lossy
Stream size : 1.24 GiB (17%)
Title : ENG
Language : English
Default : No
Forced : No

Text
ID : 4
Format : UTF-8
Codec ID : S_TEXT/UTF8
Codec ID/Info : UTF-8 Plain Text
Title : ENG
Language : English
Default : No
Forced : No

Menu
00:00:00.000 : :Chapter 01
00:07:47.458 : :Chapter 02
00:17:45.333 : :Chapter 03
00:32:01.458 : :Chapter 04
00:39:07.416 : :Chapter 05
00:50:20.500 : :Chapter 06
00:58:14.416 : :Chapter 07
01:10:18.750 : :Chapter 08
01:19:45.957 : :Chapter 09
01:30:03.166 : :Chapter 10
01:41:59.500 : :Chapter 11
01:52:55.000 : :Chapter 12
Скріншоти









Особиста подяка пану denixx за надану матеріальну допомогу на підтримку цього і майбутніх релізів.

Джерело:


 Трекер:    Зареєстрований   

Завантажити / скачати фільм українською



відео для новачків



 Зареєстрований:   2020-02-29 14:47
 Розмір:   7.34 GB 
 Оцінка фільму:   8.6/10 (Голосів: 5)
   
Інші релізи
   Альфа Доґ / Альфа Дог / Alpha Dog (2006) AVC Ukr/Eng Maters  4 / 0   2.39 GB   2019-10-30 23:05 
   Альфа Доґ / Альфа Дог / Alpha Dog (2006) 720p Ukr/Eng [Captain]  5 / 0   5.21 GB   2014-06-03 22:00 
   Альфа Доґ / Альфа Дог / Alpha Dog (2006) patriot2305  3 / 0   1.24 GB   2013-10-26 08:54 
   Альфа Дог / Alpha Dog (2006) Ukr/Eng | Sub Eng Romario_O  2 / 0   2.18 GB   2010-01-17 16:57 
tgb 
Свій


З нами з: 31.08.12
Востаннє: 20.09.20
Повідомлень: 65

2020-06-22 11:38  
люблю цей жанр але не зміг додивитись. 4/10
Ваш часовий пояс: GMT + 2 Години

Нова тема   Відповісти