Голлі залишається на ніч / Holly Slept Over (2020) 1080p Eng | sub Ukr/Eng

Нові коментарі

Нова тема   Відповісти
Автор Повідомлення
Anonymous 







2020-02-29 11:04  
Голлі залишається на ніч / Holly Slept Over (2020) 1080p Eng | sub Ukr/Eng



Жанр: комедія
Країна: США



Кінокомпанія: American High, Destination Films, LD Entertainment, American Indie
Режисер: Джошуа Фрідлендер / Joshua Friedlander
Актори: Джош Лоусон / Josh Lawson, Бріттні Ловер / Britt Lower, Наталі Еммануель / Nathalie Emmanuel, Рон Лівінґстон / Ron Livingston, Ерінн Хейс / Erinn Hayes та інші.

Сюжет:
Коли Одра (Бріттні Ловер) зізнається чоловіку, що спала з Голлі (Наталі Еммануель), сусідкою по кімнаті з коледжу, їхнє життя кардинально змінюється. Несподіваний візит Голлі і її беззаперечний шарм додають новизни стосункам Ноеля та Одри. Ці троє стоять на порозі чогось незвіданого.
Офіційний трейлер:


Вікова категорія: 16+

Тривалість: 01:27:44
Якість: 1080p
Відео:
кодек:
розмір кадру: 1920 х 796
бітрейт: 4587 кб/с

Аудіо:
мова: англійська
переклад: оригінал
кодек: 5.1
бітрейт: 384 кб/с

Субтитри # 1:
мова: українська
тип: програмні (м'які)
формат: *.srt
перекладач: Володимир Фатун

Субтитри # 2:
мова: англійська (SDH)
тип: програмні (м'які)
формат: *.srt

Збережено оригінальні розділи
Info
Код:

Complete name               : Holly Slept Over (2020) [Eng sub.Ukr,Eng] 1080p [Hurtom].
Format                      :
Format version              : Version 4
File size                   : 3.05 GiB
Duration                    : 1 h 27 min
Overall bit rate            : 4 974 kb/s
Movie name                  : Голлі залишається на ніч / Holly Slept Over (2020) [Eng sub.Ukr,Eng] 1080p [Hurtom]
Encoded date                : UTC 2020-02-29 07:33:11
Writing application         : v43.0.0 ('The Quartermaster') 64-bit
Writing library             : libebml v1.3.10 + v1.5.2
Cover                       : Yes
Attachments                 : cover.jpg

Video
ID                          : 1
Format                      : AVC
Format/Info                 : Advanced Video Codec
Format profile              : [email protected]
Format settings             : CABAC / 5 Ref Frames
Format settings, CABAC      : Yes
Format settings, Reference  : 5 frames
Codec ID                    : V_MPEG4/ISO/AVC
Duration                    : 1 h 27 min
Bit rate                    : 4 587 kb/s
Width                       : 1 920 pixels
Height                      : 796 pixels
Display aspect ratio        : 2.40:1
Frame rate mode             : Constant
Frame rate                  : 23.976 (23976/1000) FPS
Color space                 : YUV
Chroma subsampling          : 4:2:0
Bit depth                   : 8 bits
Scan type                   : Progressive
Bits/(Pixel*Frame)          : 0.125
Stream size                 : 2.81 GiB (92%)
Title                       : Голлі залишається на ніч / Holly Slept Over (2020) 1080p [EVO]
Language                    : English
Default                     : Yes
Forced                      : No
Color range                 : Limited
Color primaries             : BT.709
Transfer characteristics    : BT.709
Matrix coefficients         : BT.709

Audio
ID                          : 2
Format                      : AC-3
Format/Info                 : Audio Coding 3
Commercial name             : Dolby Digital
Codec ID                    : A_AC3
Duration                    : 1 h 27 min
Bit rate mode               : Constant
Bit rate                    : 384 kb/s
Channel(s)                  : 6 channels
Channel layout              : L R C LFE Ls Rs
Sampling rate               : 48.0 kHz
Frame rate                  : 31.250 FPS (1536 SPF)
Compression mode            : Lossy
Delay relative to video     : -42 ms
Stream size                 : 241 MiB (8%)
Title                       : Original, 5.1 384 Kbps
Language                    : English
Service kind                : Complete Main
Default                     : Yes
Forced                      : No

Text #1
ID                          : 3
Format                      : UTF-8
Codec ID                    : S_TEXT/UTF8
Codec ID/Info               : UTF-8 Plain Text
Duration                    : 1 h 26 min
Bit rate                    : 118 b/s
Count of elements           : 1239
Stream size                 : 75.1 KiB (0%)
Title                       : Ukr Full [iTunes]
Language                    : Ukrainian
Default                     : Yes
Forced                      : Yes

Text #2
ID                          : 4
Format                      : UTF-8
Codec ID                    : S_TEXT/UTF8
Codec ID/Info               : UTF-8 Plain Text
Duration                    : 1 h 27 min
Bit rate                    : 117 b/s
Count of elements           : 1751
Stream size                 : 75.3 KiB (0%)
Title                       : Eng [SDH]
Language                    : English
Default                     : No
Forced                      : No

Menu
00:00:00.000                : en:1
00:06:30.849                : en:2
00:11:55.757                : en:3
00:17:31.467                : en:4
00:24:42.606                : en:5
00:28:44.722                : en:6
00:33:16.659                : en:7
00:41:01.039                : en:8
00:42:36.091                : en:9
00:49:05.395                : en:10
00:56:50.485                : en:11
00:59:09.499                : en:12
01:03:48.861                : en:13
01:12:02.938                : en:14
01:17:43.612                : en:15
01:20:02.626                : en:16




Джерело: &


 Трекер:    Зареєстрований   

Завантажити / скачати фільм українською



відео для новачків



 Зареєстрований:   2020-02-29 11:04
 Розмір:   3.05 GB 
 Оцінка фільму:   9.6/10 (Голосів: 10)
 ЗАЛИШАЙТЕСЬ ЯКОМОГА ДОВШЕ НА РОЗДАЧІ! ЗАВАНТАЖИВ САМ - ДАЙ ЗАВАНТАЖИТИ ІНШИМ!
   
mobyty 
Новенький


З нами з: 13.11.11
Востаннє: 03.04.20
Повідомлень: 3

2020-03-09 01:46  
Чоловікам дивитись не задумуючись !!!
Деяким дівчатам теж Wink (1)

HEKPOMAH 
Новенький


З нами з: 18.07.08
Востаннє: 29.03.20
Повідомлень: 24

2020-03-21 04:42  
Мені ся сподобало. Happy Легкий фільм.
Ваш часовий пояс: GMT + 2 Години

Нова тема   Відповісти