Крижане серце / Frozen (2013) UHD Remux 4K 2160p Ukr/Eng | Sub Eng

Нові коментарі

Нова тема   Відповісти
Автор Повідомлення
Argentum 
VIP


З нами з: 25.09.11
Востаннє: 05.08.20
Повідомлень: 257

2020-02-27 16:08  
Крижане серце / Frozen (2013) UHD Remux 2160p 4K HDR H.265 Ukr/Eng | Sub Eng

Крижане серце / Frozen (2013) UHD Remux 4K 2160p Ukr/Eng | Sub Eng


Жанр: анімація, пригодницький, сімейний
Країна: США



Кінокомпанія: Walt Disney Animation Studios, Walt Disney Pictures
Режисер: Кріс Бак, Дженніфер Лі
Актори: Крістен Белл, Ідіна Мензел, Джонатан Ґрофф, Джош Ґад, Сантіно Фонтана, Алан Тьюдік, Кіаран Гайндс, Кріс Вільямс, Стівен Джей Андерсон, Мая Вілсон та інші.

Сюжет:
Коли стародавнє пророцтво здійснюється і королівство занурюється в обійми вічної зими, троє безстрашних героїв - принцеса Анна, відважний Крістофф і його вірний олень Свен - відправляються в гори, щоб знайти сестру Анни, Ельзу, яка може зняти з країни закляття. По дорозі їх чекає безліч захоплюючих сюрпризів і захоплюючих пригод. Анні і Крістоффу належить об'єднатися і протистояти могутньої стихії, щоб врятувати королівство і тих, хто їм дорогий...


Відео:
кодек: H.265 (HEVC)
розмір кадру: 3840 х 2160
бітрейт: 56,8 Мб/с
бітова глибина: 10 біт
кольоровий простір: BT.2020 (HDR)

Увага! Перед завантаженням переконайтесь, що ваш пристрій відтворення (та/або ПЗ) підтримує H.265 (HEVC)

Аудіо # 1:
мова: українська
переклад: професійний дубльований
кодек: 5.1
бітрейт: 384 кб/с
Інформація про дубляж
Фільм дубльовано студією «Le Doyen» на замовлення «Disney Character Voices International» у 2013 році.

Режисер дубляжу - Анна Пащенко
Перекладач і автор текстів пісень - Роман Дяченко
Музичний керівник - Тетяна Піроженко
Диктор - Кирило Нікітенко

Ролі озвучували:

Анна (діалоги) - Ганна Сагайдачна
Анна (вокал) - Марія Яремчук
Ельза (діалоги) - Аліна Проценко
Ельза (вокал) - Ольга Шаніс
Крістоф - Дмитро Сова
Ганс (діалоги) - Володимир Остапчук
Ганс (вокал) - Артем Кондратюк
Олаф - Андрій Альохін
Герцог - Євген Малуха
Пабі - Олександр Ігнатуша
Герда - Валентина Гришокіна
Король - Андрій Мостренко
b]Бульда[/b] - Тетяна Зіновенко
Єпископ - Юрій Висоцький
Кай - Михайло Войчук
Маленька Анна - Галина Дубок

А також: Етель Еененберг, Марія Нікітенко, Єлизавета Зіновенко, Олег Олександров, Ігор Волков, Дмитро Вікулов, Роман Чупіс, Євген Лунченко, Ніна Касторф, Маргарита Двойненко, Катіко Пуртцеладзе, Сергій Солопай, Володимир Канівець, Кирило Нікітенко, В'ячеслав Дудко, Юрій Сосков, Катерина Качан, Катерина Башкіна, Людмила Барбір, Сергій Юрченко, Євген Анішко, Михайло Мальцев, Володимир Трач
Аудіо # 2:
мова: англійська
переклад: оригінал
кодек: TrueHD 7.1
бітрейт: 4 473 кб/с

Аудіо # 3:
мова: англійська
переклад: оригінал
кодек: 5.1
бітрейт: 640 кб/с

Субтитри: (форсовані)
мова: українська
тип: програмні (м'які)
формат: *.srt

Субтитри:
мова: англійська
тип: програмні (м'які)
формат: *.srt
Info
General
Unique ID : 87912024614320267857659367041147941356 (0x42233D7512B2492362D3D2C2D6DD31EC)
Complete name : Frozen.2013.Remux.2160p.Ukr.Eng.Hurtom.
Format :
Format version : Version 4
File size : 44.5 GiB
Duration : 1 h 42 min
Overall bit rate mode : Variable
Overall bit rate : 62.3 Mb/s
Movie name : Frozen (2013)
Encoded date : UTC 2020-02-21 17:43:12
Writing application : v43.0.0 ('The Quartermaster') 64-bit
Writing library : libebml v1.3.10 + v1.5.2
Attachments : Frozen.jpg

Video
ID : 1
Format : HEVC
Format/Info : High Efficiency Video Coding
Format profile : Main [email protected]@High
HDR format : SMPTE ST 2086, HDR10 compatible
Codec ID : V_MPEGH/ISO/HEVC
Duration : 1 h 42 min
Bit rate : 56.8 Mb/s
Width : 3 840 pixels
Height : 2 160 pixels
Display aspect ratio : 16:9
Frame rate mode : Constant
Frame rate : 23.976 (24000/1001) FPS
Color space : YUV
Chroma subsampling : 4:2:0 (Type 2)
Bit depth : 10 bits
Bits/(Pixel*Frame) : 0.286
Stream size : 40.5 GiB (91%)
Title : HEVC 3840*2160 HDR10 @ 56.8 Mb/s
Writing library : ATEME Titan File 3.9.0 (4.9.0.0)
Language : Multiple languages
Default : Yes
Forced : Yes
Color range : Limited
Color primaries : BT.2020
Transfer characteristics : PQ
Matrix coefficients : BT.2020 non-constant
Mastering display color primaries : Display P3
Mastering display luminance : min: 0.0001 cd/m2, max: 1000 cd/m2

Audio #1
ID : 2
Format : AC-3
Format/Info : Audio Coding 3
Commercial name : Dolby Digital
Codec ID : A_AC3
Duration : 1 h 42 min
Bit rate mode : Constant
Bit rate : 384 kb/s
Channel(s) : 6 channels
Channel layout : L R C LFE Ls Rs
Sampling rate : 48.0 kHz
Frame rate : 31.250 FPS (1536 SPF)
Compression mode : Lossy
Stream size : 281 MiB (1%)
Title : AC-3 5.1 @ 384 kb/s
Language : Ukrainian
Service kind : Complete Main
Default : Yes
Forced : Yes

Audio #2
ID : 3
Format : MLP FBA 16-ch
Format/Info : Meridian Lossless Packing FBA with 16-channel presentation
Commercial name : Dolby TrueHD with Dolby Atmos
Codec ID : A_TRUEHD
Duration : 1 h 42 min
Bit rate mode : Variable
Bit rate : 4 437 kb/s
Maximum bit rate : 4 392 kb/s
Channel(s) : 8 channels
Channel layout : L R C LFE Ls Rs Lb Rb
Sampling rate : 48.0 kHz
Frame rate : 1 200.000 FPS (40 SPF)
Compression mode : Lossless
Stream size : 3.17 GiB (7%)
Title : TrueHD 7.1 @ 4 437 kb/s
Language : English
Default : No
Forced : No
Number of dynamic objects : 13
Bed channel count : 1 channel
Bed channel configuration : LFE

Audio #3
ID : 4
Format : AC-3
Format/Info : Audio Coding 3
Commercial name : Dolby Digital
Codec ID : A_AC3
Duration : 1 h 42 min
Bit rate mode : Constant
Bit rate : 640 kb/s
Channel(s) : 6 channels
Channel layout : L R C LFE Ls Rs
Sampling rate : 48.0 kHz
Frame rate : 31.250 FPS (1536 SPF)
Compression mode : Lossy
Stream size : 468 MiB (1%)
Title : AC-3 5.1 @ 640 kb/s
Language : English
Service kind : Complete Main
Default : No
Forced : No

Text #1
ID : 5
Format : UTF-8
Codec ID : S_TEXT/UTF8
Codec ID/Info : UTF-8 Plain Text
Duration : 34 min 46 s
Bit rate : 0 b/s
Count of elements : 3
Stream size : 124 Bytes (0%)
Title : Forced
Language : Ukrainian
Default : Yes
Forced : Yes

Text #2
ID : 6
Format : UTF-8
Codec ID : S_TEXT/UTF8
Codec ID/Info : UTF-8 Plain Text
Duration : 1 h 41 min
Bit rate : 66 b/s
Count of elements : 1990
Stream size : 49.9 KiB (0%)
Title : SDH
Language : English
Default : No
Forced : No

Menu #1
00:00:00.000 : en:(01)00:00:00:000
00:05:59.817 : en:(02)00:05:59:817
00:11:37.947 : en:(03)00:11:37:947
00:19:53.734 : en:(04)00:19:53:734
00:31:03.194 : en:(05)00:31:03:194
00:38:39.483 : en:(06)00:38:39:483
00:44:21.283 : en:(07)00:44:21:283
00:50:51.506 : en:(08)00:50:51:506
00:57:48.381 : en:(09)00:57:48:381
01:02:57.398 : en:(10)01:02:57:398
01:09:36.046 : en:(11)01:09:36:046
01:13:34.868 : en:(12)01:13:34:868
01:18:07.599 : en:(13)01:18:07:599
01:22:33.740 : en:(14)01:22:33:740
01:27:10.808 : en:(15)01:27:10:808
01:32:33.506 : en:(16)01:32:33:506
01:42:12.793 : en:(17)01:42:12:793

Menu #2
00:00:00.000 : en:Chapter 01
00:05:59.359 : en:Chapter 02
00:11:37.405 : en:Chapter 03
00:19:53.567 : en:Chapter 04
00:31:03.027 : en:Chapter 05
00:38:38.983 : en:Chapter 06
00:44:21.116 : en:Chapter 07
00:50:51.256 : en:Chapter 08
00:57:48.214 : en:Chapter 09
01:02:57.064 : en:Chapter 10
01:09:35.796 : en:Chapter 11
01:13:34.701 : en:Chapter 12
01:18:07.432 : en:Chapter 13
01:22:33.198 : en:Chapter 14
01:27:10.308 : en:Chapter 15
01:32:33.297 : en:Chapter 16
Скріншоти







Джерело:
Особиста оцінка: 8 - мені сподобалося


Золотий реліз (завантажене не впливає на рейтинг)
 Трекер:    Зареєстрований   

Завантажити / скачати мультфільм українською



відео для новачків



 Зареєстрований:   2020-02-27 17:07
 Розмір:   44.5 GB 
 Оцінка мультфільму:   9.2/10 (Голосів: 5)
 ЗАЛИШАЙТЕСЬ ЯКОМОГА ДОВШЕ НА РОЗДАЧІ! ЗАВАНТАЖИВ САМ - ДАЙ ЗАВАНТАЖИТИ ІНШИМ!
   
Інші релізи
   Крижане серце / Frozen (2013) 1080p H.265 Ukr/Eng | Sub Eng -Star-Lord-  49 / 0   3.63 GB   2019-01-04 12:01 
   Крижане серце / Frozen (2013) 1080p [48 fps] Ukr/Eng | Sub Eng/Fra/Esp smsfdg  5 / 1   27.59 GB   2014-08-30 20:41 
   Крижане серце / Frozen (2013) 720p-mini [60fps] Drool  6 / 0   4.35 GB   2014-08-20 15:44 
   Закрижаніла / Крижане серце / Frozen (2013) 720p Eng | Sub Ukr Gedet  13 / 0   2.47 GB   2014-07-28 19:20 
   Крижане серце / Frozen (2013) Remux 1080p Ukr/Eng | Sub Eng/Fr/Es smsfdg  9 / 0   20.41 GB   2014-07-19 21:16 
   Крижане серце / Frozen (2013) AVC BASTERD-94  2 / 0   978 MB   2014-07-07 21:30 
   Крижане серце / Frozen (2013) 1080p 3D SideBySide Ukr/Eng | Sub Eng dinosaurus  2 / 0   5.96 GB   2014-06-15 16:06 
   Крижане серце / Frozen (2013) 720p-mini Drool  4 / 0   2.16 GB   2014-05-05 16:48 
   Крижане серце / Frozen (2013) 1080p Ukr/Eng | Sub Eng 11FrYkT  21 / 0   8.01 GB   2014-04-30 10:02 
   Крижане серце / Frozen (2013) 720p Ukr/Eng | Sub Eng 11FrYkT  20 / 0   4.05 GB   2014-04-30 08:30 
   Крижане серце / Frozen (2013) Ukr/Eng | Sub Ukr/Eng Gelios  91 / 1   1.45 GB   2014-04-29 23:12 
   Крижане серце / Frozen (2013) AVC Ukr/Eng | Sub Eng 11FrYkT  13 / 0   2.14 GB   2014-04-29 23:09 
bot 
робот


З нами з: 30.09.07
Востаннє: 26.05.05
Повідомлень: 25170

2020-02-27 16:08  
Тему перенесено з Фільми в HD до форуму Анонси релізів


Argentum

bot 
робот


З нами з: 30.09.07
Востаннє: 26.05.05
Повідомлень: 25170

2020-02-27 17:07  
Тему перенесено з Анонси релізів до форуму Мультфільми в HD


Argentum

BMK12 
Відео Гуртом - підтримка та поширення
Відео Гуртом - підтримка та поширення


З нами з: 13.04.09
Востаннє: 04.08.20
Повідомлень: 3724

2020-02-27 22:51  
Цікаво, чому ніхто не робить на 2160p 4K?
antik_2008 
Релізер і модератор відео


З нами з: 20.10.08
Востаннє: 06.08.20
Повідомлень: 4007

2020-02-28 01:29  
BMK12 написано:
Цікаво, чому ніхто не робить на 2160p 4K?

Добре , що і такий викладають
на 2160p 4K Це для вас залишили , щоб від вас були нові релізи Happy

Ваш часовий пояс: GMT + 2 Години

Нова тема   Відповісти