Повернення в рай / Return to Paradise (1998) 1080p Ukr/Eng | Sub Eng

Нові коментарі

Нова тема   Відповісти
Автор Повідомлення
Anonymous 







2020-02-26 20:22  
Повернення в рай / Return to Paradise (1998) 1080p Ukr/Eng | Sub Eng

Повернення в рай / Return to Paradise (1998) 1080p Ukr/Eng | Sub Eng


Жанр: трилер, драма, мелодрама
Країна: США



Кінокомпанія: Polygram Filmed Entertainment, Propaganda Films
Режисер: Джозеф Рубен / Joseph Ruben
Актори: Вінс Вон, Енн Хеч, Хоакин Фенікс, Девід Конрад, Вера Фарміга, Нік Сендоу, Джада Пінкетт Сміт, Мінг Лі, Джоель Де Ла Фуенте, Річард Чанг

Сюжет:
Троє близьких друзів — Шериф, Тоні і Люіс — вирішили разом провести відпустку в Малайзії. Екзотичний острів, жінки, випивка, трохи наркотиків — райське життя! Шериф і Тоні повертаються додому, в Штати, а Люіс залишається, щоб присвятити себе вивченню тропічної фауни. Проте в бунгало, яке знімали друзі, місцева поліція виявила залишені наркотики. Люіс арештований і, за малазійським законами, його чекає страта. Врятувати його можуть лише Шериф і Тоні.


Тривалість: 01:51:48
Якість: 1080p
Відео:
кодек:
розмір кадру: 1920х816
бітрейт: 11.5 Mб/с

Аудіо # 1:
мова: українська
переклад: багатоголосий закадровий
кодек: 2.0
бітрейт: 192 кб/с

Аудіо # 2:
мова: англійська
переклад: оригінал
кодек: 5.1
бітрейт: 448 кб/с

Субтитри:
мова: англійська
тип: програмні (м'які)
формат: *.srt
Info
General
Unique ID : 222577205791193873379381324262956132548 (0xA772CF80AC0D0C0794E431790F68E8C4)
Complete name : H:\Toloka\2020\Return to Paradise (1998) 1080p.
Format :
Format version : Version 4
File size : 9.48 GiB
Duration : 1 h 51 min
Overall bit rate : 12.1 Mb/s
Encoded date : UTC 2020-02-26 17:16:56
Writing application : v6.1.0 ('Old Devil') built on Mar 4 2013 09:10:42
Writing library : libebml v1.3.0 + v1.4.0

Video
ID : 1
Format : AVC
Format/Info : Advanced Video Codec
Format profile : [email protected]
Format settings : CABAC / 4 Ref Frames
Format settings, CABAC : Yes
Format settings, RefFrames : 4 frames
Codec ID : V_MPEG4/ISO/AVC
Duration : 1 h 51 min
Bit rate : 11.5 Mb/s
Width : 1 920 pixels
Height : 816 pixels
Display aspect ratio : 2.35:1
Frame rate mode : Constant
Frame rate : 23.976 (24000/1001) FPS
Color space : YUV
Chroma subsampling : 4:2:0
Bit depth : 8 bits
Scan type : Progressive
Bits/(Pixel*Frame) : 0.306
Stream size : 8.79 GiB (93%)
Writing library : core 148 r2748 97eaef2
Encoding settings : cabac=1 / ref=4 / deblock=1:-2:-2 / analyse=0x3:0x113 / me=umh / subme=9 / psy=1 / psy_rd=1.00:0.15 / mixed_ref=1 / me_range=16 / chroma_me=1 / trellis=2 / 8x8dct=1 / cqm=0 / deadzone=21,11 / fast_pskip=1 / chroma_qp_offset=-3 / threads=24 / lookahead_threads=3 / sliced_threads=0 / nr=0 / decimate=1 / interlaced=0 / bluray_compat=0 / constrained_intra=0 / bframes=3 / b_pyramid=2 / b_adapt=1 / b_bias=0 / direct=3 / weightb=1 / open_gop=0 / weightp=2 / keyint=250 / keyint_min=25 / scenecut=40 / intra_refresh=0 / rc_lookahead=50 / rc=2pass / mbtree=1 / bitrate=11500 / ratetol=1.0 / qcomp=0.60 / qpmin=0 / qpmax=69 / qpstep=4 / cplxblur=20.0 / qblur=0.5 / vbv_maxrate=31250 / vbv_bufsize=31250 / nal_hrd=none / filler=0 / ip_ratio=1.40 / aq=1:1.00
Language : English
Default : Yes
Forced : No
Statistics Tags Issue : v43.0.0 ('The Quartermaster') 64-bit 2020-02-25 21:02:28 / v6.1.0 ('Old Devil') built on Mar 4 2013 09:10:42 2020-02-26 17:16:56
FromStats_BitRate : 11499236
FromStats_Duration : 01:51:47.993000000
FromStats_FrameCount : 160831
FromStats_StreamSize : 9642099654

Audio #1
ID : 2
Format : AC-3
Format/Info : Audio Coding 3
Commercial name : Dolby Digital
Codec ID : A_AC3
Duration : 1 h 51 min
Bit rate mode : Constant
Bit rate : 192 kb/s
Channel(s) : 2 channels
Channel layout : L R
Sampling rate : 48.0 kHz
Frame rate : 31.250 FPS (1536 SPF)
Bit depth : 16 bits
Compression mode : Lossy
Stream size : 154 MiB (2%)
Title : UKR (Україна)
Language : Ukrainian
Service kind : Complete Main
Default : Yes
Forced : Yes

Audio #2
ID : 3
Format : AC-3
Format/Info : Audio Coding 3
Commercial name : Dolby Digital
Codec ID : A_AC3
Duration : 1 h 51 min
Bit rate mode : Constant
Bit rate : 448 kb/s
Channel(s) : 6 channels
Channel layout : L R C LFE Ls Rs
Sampling rate : 48.0 kHz
Frame rate : 31.250 FPS (1536 SPF)
Bit depth : 16 bits
Compression mode : Lossy
Stream size : 358 MiB (4%)
Title : ENG
Language : English
Service kind : Complete Main
Default : No
Forced : No
Statistics Tags Issue : v43.0.0 ('The Quartermaster') 64-bit 2020-02-25 21:02:28 / v6.1.0 ('Old Devil') built on Mar 4 2013 09:10:42 2020-02-26 17:16:56
FromStats_BitRate : 448000
FromStats_Duration : 01:51:47.968000000
FromStats_FrameCount : 209624
FromStats_StreamSize : 375646208

Text
ID : 4
Format : UTF-8
Codec ID : S_TEXT/UTF8
Codec ID/Info : UTF-8 Plain Text
Title : ENG
Language : English
Default : Yes
Forced : No
Statistics Tags Issue : v43.0.0 ('The Quartermaster') 64-bit 2020-02-25 21:02:28 / v6.1.0 ('Old Devil') built on Mar 4 2013 09:10:42 2020-02-26 17:16:56
FromStats_BitRate : 51
FromStats_Duration : 01:45:37.745000000
FromStats_FrameCount : 1016
FromStats_StreamSize : 40649

Menu
00:00:00.000 : en:Chapter 01
00:13:48.911 : en:Chapter 02
00:27:51.294 : en:Chapter 03
00:39:05.634 : en:Chapter 04
00:56:08.031 : en:Chapter 05
01:07:57.531 : en:Chapter 06
01:21:43.023 : en:Chapter 07
01:37:26.715 : en:Chapter 08
01:47:44.291 : en:Chapter 09
Скріншоти






За доріжку подяка п.: karvai0, xSlim
Особиста подяка пану denixx за надану матеріальну допомогу на підтримку цього і майбутніх релізів.
Джерело:


Срібний реліз (на рейтинг впливає 50% завантаженого)
 Трекер:    Зареєстрований   

Завантажити / скачати фільм українською



відео для новачків



 Зареєстрований:   2020-02-26 20:22
 Розмір:   9.48 GB 
 Оцінка фільму:   10/10 (Голосів: 6)
   
Інші релізи
Ваш часовий пояс: GMT + 2 Години

Нова тема   Відповісти