Жадоба смерті 2 / Death Wish II [UNRATED] (1982) 1080p Ukr/Eng | Sub Eng

Нові коментарі

Нова тема   Відповісти
Автор Повідомлення
Anonymous 







2020-02-26 18:55  
Жадоба смерті 2 / Death Wish II [UNRATED] (1982) 1080p Ukr/Eng | Sub Eng

Жадоба смерті 2 / Death Wish II [UNRATED] (1982) 1080p Ukr/Eng | Sub Eng


Жанр: бойовик, драма, кримінальний, трилер
Країна: США



Кінокомпанія: Cannon Films, City Films, Golan-Globus Productions
Режисер: Майкл Віннер
Актори: Чарльз Бронсон, Джилл Айрленд, Вінсент Гарденія, Дж.Д. Кеннон, Ентоні Франчоза, Бен Френк, Робін Шервуд, Сільвана Галлардо, Роберт Ф. Лайонс, Майкл Принц

Сюжет:
Архітектор Пол Керсі переїздить з Нью-Йорка в Лос-Анджелес. І разом з ним, здається, переїздять всі мислимі і немислимі напасті. Зовсім недавно загинула дружина Керсі. А тепер банда покидьків гвалтує і вбиває його служницю, а дочка кінчає життя самогубством. Прийшов час Полу знову взятися за зброю і вийти на нічне полювання ...


Тривалість: 01:31:55
Якість: 1080p
Відео:
кодек:
розмір кадру: 1920х1040
бітрейт: 12.8 Mб/с

Аудіо # 1:
мова: українська
переклад: багатоголосий закадровий
кодек: 2.0
бітрейт: 192 кб/с

Аудіо # 2:
мова: англійська
переклад: оригінал
кодек: 2.0
бітрейт: 1509 кб/с

Субтитри:
мова: англійська
тип: програмні (м'які)
формат: *.srt
Info
General
Unique ID : 179521648033990562944430767382493361782 (0x870E9C9C65D559AAA25556CD70577676)
Complete name : H:\Toloka\2020\Death Wish II [UNRATED] (1982) 1080p.
Format :
Format version : Version 4
File size : 9.49 GiB
Duration : 1 h 31 min
Overall bit rate : 14.8 Mb/s
Encoded date : UTC 2020-02-26 15:49:36
Writing application : v6.1.0 ('Old Devil') built on Mar 4 2013 09:10:42
Writing library : libebml v1.3.0 + v1.4.0

Video
ID : 1
Format : AVC
Format/Info : Advanced Video Codec
Format profile : [email protected]
Format settings : CABAC / 4 Ref Frames
Format settings, CABAC : Yes
Format settings, RefFrames : 4 frames
Codec ID : V_MPEG4/ISO/AVC
Duration : 1 h 31 min
Bit rate : 12.8 Mb/s
Width : 1 920 pixels
Height : 1 040 pixels
Display aspect ratio : 1.85:1
Frame rate mode : Constant
Frame rate : 23.976 (24000/1001) FPS
Color space : YUV
Chroma subsampling : 4:2:0
Bit depth : 8 bits
Scan type : Progressive
Bits/(Pixel*Frame) : 0.267
Stream size : 8.21 GiB (86%)
Writing library : core 148 r2708 86b7198
Encoding settings : cabac=1 / ref=4 / deblock=1:-3:-3 / analyse=0x3:0x133 / me=umh / subme=9 / psy=1 / psy_rd=1.00:0.00 / mixed_ref=1 / me_range=24 / chroma_me=1 / trellis=2 / 8x8dct=1 / cqm=0 / deadzone=21,11 / fast_pskip=0 / chroma_qp_offset=-2 / threads=12 / lookahead_threads=1 / sliced_threads=0 / nr=0 / decimate=1 / interlaced=0 / bluray_compat=0 / constrained_intra=0 / bframes=6 / b_pyramid=2 / b_adapt=2 / b_bias=0 / direct=3 / weightb=1 / open_gop=0 / weightp=2 / keyint=240 / keyint_min=24 / scenecut=40 / intra_refresh=0 / rc_lookahead=60 / rc=crf / mbtree=1 / crf=20.0 / qcomp=0.60 / qpmin=0 / qpmax=69 / qpstep=4 / vbv_maxrate=62500 / vbv_bufsize=78125 / crf_max=0.0 / nal_hrd=none / filler=0 / ip_ratio=1.40 / aq=1:1.00
Default : Yes
Forced : No
Color range : Limited
Color primaries : BT.709
Transfer characteristics : BT.709
Matrix coefficients : BT.709
Statistics Tags Issue : v43.0.0 ('The Quartermaster') 64-bit 2020-02-25 21:48:29 / v6.1.0 ('Old Devil') built on Mar 4 2013 09:10:42 2020-02-26 15:49:36
FromStats_BitRate : 13070882
FromStats_Duration : 01:31:55.343000000
FromStats_FrameCount : 132235
FromStats_StreamSize : 9011300221

Audio #1
ID : 2
Format : AC-3
Format/Info : Audio Coding 3
Commercial name : Dolby Digital
Codec ID : A_AC3
Duration : 1 h 31 min
Bit rate mode : Constant
Bit rate : 192 kb/s
Channel(s) : 2 channels
Channel layout : L R
Sampling rate : 48.0 kHz
Frame rate : 31.250 FPS (1536 SPF)
Bit depth : 16 bits
Compression mode : Lossy
Stream size : 126 MiB (1%)
Title : UKR (AMC)
Language : Ukrainian
Service kind : Complete Main
Default : Yes
Forced : Yes

Audio #2
ID : 3
Format :
Format/Info : Digital Theater Systems
Codec ID : A_DTS
Duration : 1 h 31 min
Bit rate mode : Constant
Bit rate : 1 509 kb/s
Channel(s) : 2 channels
Channel layout : L R
Sampling rate : 48.0 kHz
Frame rate : 93.750 FPS (512 SPF)
Bit depth : 24 bits
Compression mode : Lossy
Stream size : 992 MiB (10%)
Title : 2.0 Audio
Language : English
Default : No
Forced : No
Statistics Tags Issue : v43.0.0 ('The Quartermaster') 64-bit 2020-02-25 21:48:29 / v6.1.0 ('Old Devil') built on Mar 4 2013 09:10:42 2020-02-26 15:49:36
FromStats_BitRate : 1508999
FromStats_Duration : 01:31:55.339000000
FromStats_FrameCount : 517063
FromStats_StreamSize : 1040330756

Text
ID : 4
Format : UTF-8
Codec ID : S_TEXT/UTF8
Codec ID/Info : UTF-8 Plain Text
Title : ENG
Language : English
Default : Yes
Forced : No
Statistics Tags Issue : v43.0.0 ('The Quartermaster') 64-bit 2020-02-25 21:48:29 / v6.1.0 ('Old Devil') built on Mar 4 2013 09:10:42 2020-02-26 15:49:36
FromStats_BitRate : 43
FromStats_Duration : 01:28:34.260000000
FromStats_FrameCount : 877
FromStats_StreamSize : 28806

Menu
00:00:00.000 : :Chapter 1
00:07:51.179 : :Chapter 2
00:23:07.970 : :Chapter 3
00:37:05.890 : :Chapter 4
00:51:34.967 : :Chapter 5
01:07:46.104 : :Chapter 6
01:17:49.081 : :Chapter 7
01:29:56.182 : :Chapter 8
Скріншоти





За доріжку подяка п.: slavik_v_z, Arsenfpu
Особиста подяка пану denixx за надану матеріальну допомогу на підтримку цього і майбутніх релізів.
Джерело:


Срібний реліз (на рейтинг впливає 50% завантаженого)
 Трекер:    Зареєстрований   

Завантажити / скачати фільм українською



відео для новачків



 Зареєстрований:   2020-02-26 18:55
 Розмір:   9.49 GB 
 Оцінка фільму:   10/10 (Голосів: 6)
   
Інші релізи
   Жадоба смерті 2 / Death Wish II (1982) Arsenfpu  1 / 0   1.35 GB   2017-01-30 00:48 
+380954897458 
VIP


З нами з: 02.06.17
Востаннє: 18.09.20
Повідомлень: 942

2020-02-26 21:29  
Що, серйозно? Оце так подарунок! Обожнюю цю франшизу, окрім п'ятої частини - дешевого телевізійного сміття.
MakRA 
VIP


З нами з: 11.11.18
Востаннє: 20.09.20
Повідомлень: 1119

2020-02-26 21:32  
Так, пану drop_plz величезна подяка!
Ваш часовий пояс: GMT + 2 Години

Нова тема   Відповісти