Мамця (Сезон 5) / Mom (Season 5) (2017-2018) 720p

Нові коментарі

Нова тема   Відповісти
Останній раз роздавалося Ower86 (2020-12-04)
Автор Повідомлення
alex_ter_ua 
Новенький


З нами з: 08.10.14
Востаннє: 29.10.20
Повідомлень: 8

2020-02-25 20:03  
Мамця (Сезон 5) / Mom (Season 5) (2017-2018) 720p

Мамця (Сезон 5) / Mom (Season 5) (2017-2018) 720p


Жанр: комедія
Країна: США


Кінокомпанія / телеканал: Chuck Lorre Productions, Warner Bros. Television
Режисер: Памела Фріман
Актори/ролі озвучують: Анна Фаріс, Еллісон Дженні, Джеймі Преслі, Саді Кальвано, Мімі Кенеді та інші.

Сюжет:
Крісті - мати одиначка, яка виховує двох дітей і намагається побороти алкогольну залежність. Щоб прогодувати свою сім'ю, вона влаштувалася офіціанткою в місцевий ресторан, де у неї зав'язалися стосунки з начальником Габріелем. Постійний тиск на неї надає власна мати, яка також є колишньою алкоголічкою. Крісті постійно стикається з проблемами в житті: старша дочка почала жити дорослим життям, колишній чоловік постійно намагається підставити її, новий коханець виявився одруженим. Крісті намагається у всьому поганому знайти щось хороше, що допомагає їй стати сильною людиною, яка готова пройти будь-які випробування, що виникають на її шляху.


Тривалість: 1 серія: ~20 хв. (цілком серій: 22)
Перелік серій
1 Twinkle Lights and Grandma Shoes
2 Fish Town and Too Many Thank You's
3 A Seafaring Ancestor and a Bloomin' Onion
4 Fancy Crackers and Giant Women
5 Poodle Fuzz and a Twinge of Jealousy
6 Smooth Jazz and a Weird Floaty Eye
7 Too Many Hippies and Huevos Rancheros
8 An Epi-Pen and a Security Cat
9 Teenage Vampires and a White Russian
10 A Bear and a Bladder Infection
11 Bert And Ernie And A Blessing Of The People
12 Push-Down Coffee and a Working Turn Signal
13 Pudding and a Screen Door
14 Charlotte Bronte and a Backhoe
15 Esta Loca and a Little Klingon
16 Eight Cats and the Hat Show
17 Crazy Snakes and a Clog to the Head
18 Spaghetti Sauce and a Dumpster Fire
19 A Taco Bowl and a Tubby Seamstress
20 Ocular Fluid and Fighting Robots
21 Phone Confetti and a Wee Dingle
22 Diamond Earrings and a Pumpkin Head
Якість:
Відео:
кодек:
розмір кадру: 1280 х 720
бітрейт: ~ 1000 кб/с

Аудіо:
мова: українська
переклад: багатоголосий закадровий | Paramount Comedy |
кодек: MP3
бітрейт: 192 кб/с
Info
General:

Format : MPEG-4
Format profile : Base Media
Codec ID : isom
Duration : ~ 17-21 min
Overall bit rate : 1 285 Kbps
Writing application : Lavf56.36.100

Video:
Format : AVC
Format/Info : Advanced Video Codec
Format profile : [email protected]
Format settings, CABAC : Yes
Format settings, ReFrames : 2 frames
Codec ID : avc1
Codec ID/Info : Advanced Video Coding
Duration : 20mn 29s
Bit rate mode : Variable
Bit rate : 1 089 Kbps
Width : 1 280 pixels
Height : 720 pixels
Display aspect ratio : 16:9
Frame rate mode : Constant
Frame rate : 25.000 fps
Resolution : 8 bits
Colorimetry : 4:2:0
Scan type : Progressive
Bits/(Pixel*Frame) : 0.047
Stream size : 160 MiB (85%)
Language : English

Audio:
Format : MPEG Audio
Format version : Version 1
Format profile : Layer 3
Mode : Joint stereo
Format_Settings_ModeExtension : MS Stereo
Codec ID : 6B
Duration : 20mn 29s
Bit rate mode : Constant
Bit rate : 192 Kbps
Channel(s) : 2 channels
Sampling rate : 48.0 KHz
Stream size : 28.1 MiB (15%)
Title : Paramount Comedy
Writing library : LAMEЄЄ
Language : Ukrainian
Скріншоти










Джерело:
Особиста оцінка: 8 - мені сподобалося


Бронзовий реліз (на рейтинг впливає 75% завантаженого)
 Трекер:    Зареєстрований   

Завантажити / скачати серіал українською



відео для новачків



 Зареєстрований:   2020-02-25 20:03
 Розмір:   3.77 GB 
 Оцінка серіалу:   9/10 (Голосів: 9)
   
bot 
робот


З нами з: 30.09.07
Востаннє: 26.05.05
Повідомлень: 26465

2020-02-26 09:13  
Тему перенесено з Телесеріали до форуму Серіали в HD


11FrYkT

Ваш часовий пояс: GMT + 2 Години

Нова тема   Відповісти