Три Ікси / xXx (2002) Remux 1080p [15th Anniversary Edition] 4xUkr/Eng | Sub Eng

Нові коментарі

Нова тема   Відповісти
Останній раз роздавалося MakRA (2020-09-24)
Автор Повідомлення
MakRA 
VIP


З нами з: 11.11.18
Востаннє: 24.09.20
Повідомлень: 1120

2020-02-25 11:47  
Три Ікси / xXx (2002) Remux 1080p [15th Anniversary Edition] 4xUkr/Eng | Sub Eng


«A New Breed Of Secret Agent»

Український постер:

Альтернативні постери:


Жанр: екшн, пригодницький, трилер
Країна: США



Кінокомпанія: Columbia Pictures Corporation, Revolution Studios, Original Film
Режисер: Роб Коген [Rob Cohen]
Актори: Він Дізель [Vin Diesel], Семюель Л. Джексон [Samuel L. Jackson], Азія Ардженто [Asia Argento], Денні Трехо [Danny Trejo], Мартон Чокаш [Marton Csokas], Джо Букаро-тр. [Joe Bucaro III], ТіДжей Бойс [TeeJay Boyce], Ів [Eve], Пол Ландрес [Paul Landers], Майкл Руф [Michael Roof], Том Еверетт [Tom Everett], Річі Мюллер [Richy Müller], Вернер Даен [Werner Daehn], Петро Якл [Petr Jákl].

Сюжет:
Ксандер Кейдж – небезпечний та суворий спортсмен-екстремал. Все в його житті добре: він займається екстремальним спортом, дрібними пограбуваннями та відпочинком на кращих курортах світу. Все було чудово, доки на його шляху не з'явився агент Гіббонс, який вербує його та робить секретним агентом. Мета Гіббонса проста: якщо Кейдж виконає завдання національної безпеки, то тоді він отримає свободу.
Для початку Кейдж повинен просочитися в російські кримінальні кола, що знаходяться в Празі…

Цікаве про фільм та зйомки:

-На початку фільму паралельно з дією фільму, йде живе виконання пісні Feuer frei! групи Rammstein. Пісня грає у фільмі кілька хвилин до того моменту, як Йорги задуває полум'я в чарці абсента.
-Спочатку головна роль була запропонована Еріку Бані, але актор відмовився, віддавши перевагу австралійській комедії «Самородок» (2002).
-Значна частина трюків була виконана самим Вин Дизелем без залучення каскадерів.
-Пісня, про яку йдеться у фільмі («Америка за свободу, але цьому не вір…») — це пісня групи «The Vandals-Anarchy Burger» під назвою "Hold The Government ". Ксандер назвав її «Піснею вандалів».
-Під час вітальної вечірки серед гостей можна побачити культового скейтбордиста Тоні Гока. А трохи раніше він сидить за кермом машини з друзями Ксандера, і наказує їм зняти камери з палаючого «Корвета».
-Героя, названого в російському дубляжі ім'ям Іржі, в англійській версії фільму звуть Кирилом.
-Героя з банди Йорги, котрий дізнався Ксандера Кейджа, в оригіналі звуть Коля, і він — молодший брат Йорги.
-У вирізаної з театральної версії фільму, коли бандити і Ксандер заходять в замок Йорги, останній наспівує лайливу російську пісню. У відповідь Ксандер починає репетувати гімн Америки.
-Під час вечірки в клубі Йорги Ксандер робить Кирилу зауваження, кажучи, що куріння його погубить. Згодом Кейдж вб'є Кирила, випустивши по ньому теплонавідну ракету , наведення якої здійснилося по вогнику сигарети в роті Кирила.
-Назва отруйного газу «Тиха ніч» — перша фраза широко відомої на заході різдвяної колискової.


Тривалість: 02:04:05
Якість: Remux 1080p [15th Anniversary Edition]
Відео:
кодек:
розмір кадру: 1920 х 1080
бітрейт: 24,9 Mб/с

Аудіо # 1:
мова: українська
переклад: двоголосий закадровий
кодек: 2.0
бітрейт: 192 кб/с
примітка: з нового запису 1+1
Про озвучення:
Ролі озвучили: Олександр Завальський і один жіночий.
Аудіо # 2:
мова: українська
переклад: багатоголосий закадровий
кодек: 2.0
бітрейт: 192 кб/с
Про озвучення:
Ролі озвучили: Юрій Гребельник, Дмитро Терещук, Роман Чорний і один жіночий.
Аудіо # 3:
мова: українська
переклад: багатоголосий закадровий
кодек: 2.0
бітрейт: 192 кб/с
Про озвучення:
Ролі озвучили: Олег Стальчук, Анатолій Пашнін, Юрій Гребельник і один жіночий.
Аудіо # 4:
мова: українська
переклад: багатоголосий закадровий | Студія "Так Треба Продакшн"
кодек: 2.0
бітрейт: 192 кб/с
примітка: звук витягнуто з центрального каналу псевдо 5.1
Про озвучення:
Ролі озвучили: Олег Стальчук, Анатолій Пашнін, Володимир Терещук і один жіночий.
Аудіо # 5:
мова: англійська
переклад: оригінал
кодек: -HD MA 5.1
бітрейт: 4200 кб/с

Аудіо # 6:
мова: англійська
переклад: оригінал
кодек: 5.1
бітрейт: 448 кб/с

Аудіо # 7:
мова: англійська
переклад: коментарі режисера Роба Когена
кодек: 2.0
бітрейт: 192 кб/с

Субтитри # 1: (Full)
мова: англійська
тип: програмні (м'які)
формат: *.srt

Субтитри # 2-4: (Full) | (SDH)
мова: англійська
тип: пререндерні
формат: *.pgs

Субтитри # 5: | на коментарі режисера Роба Когена
мова: англійська
тип: пререндерні
формат: *.pgs

Збережено оригінальні іменовані розділи, як на Blu-ray.
Info
General
Unique ID : 137972948879301535877208437318259738031 (0x67CC9F95954037BABFDEA81F8FC285AF)
Complete name : H:\xXx. Trilogy (2002-2017) Remux 1080p\xXx (2002) Remux 1080p [15th Anniversary Edition] 4xUkrEng Sub Eng [Hurtom].
Format :
Format version : Version 4
File size : 26.5 GiB
Duration : 2 h 4 min
Overall bit rate mode : Variable
Overall bit rate : 30.6 Mb/s
Movie name : Три Ікси / xXx (2002) Remux 1080p [15th Anniversary Edition] 4xUkr/Eng | Sub Eng [Hurtom]
Encoded date : UTC 2020-02-24 23:33:31
Writing application : v25.0.0 ('Prog Noir') 64-bit
Writing library : libebml v1.3.6 + v1.4.9
Cover : Yes
Attachments : cover.jpg

Video
ID : 1
Format : AVC
Format/Info : Advanced Video Codec
Format profile : [email protected]
Format settings : CABAC / 2 Ref Frames
Format settings, CABAC : Yes
Format settings, Reference fra : 2 frames
Codec ID : V_MPEG4/ISO/AVC
Duration : 2 h 4 min
Bit rate mode : Variable
Bit rate : 24.9 Mb/s
Width : 1 920 pixels
Height : 1 080 pixels
Display aspect ratio : 16:9
Frame rate mode : Constant
Frame rate : 23.976 (24000/1001) FPS
Color space : YUV
Chroma subsampling : 4:2:0
Bit depth : 8 bits
Scan type : Progressive
Bits/(Pixel*Frame) : 0.502
Stream size : 21.6 GiB (81%)
Title : xXx (2002) Remux 1080p [15th Anniversary Edition] 4xUkr/Eng | Sub Eng [Hurtom]
Language : Ukrainian
Default : Yes
Forced : Yes

Audio #1
ID : 2
Format : AC-3
Format/Info : Audio Coding 3
Commercial name : Dolby Digital
Codec ID : A_AC3
Duration : 2 h 4 min
Bit rate mode : Constant
Bit rate : 192 kb/s
Channel(s) : 2 channels
Channel layout : L R
Sampling rate : 48.0 kHz
Frame rate : 31.250 FPS (1536 SPF)
Compression mode : Lossy
Delay relative to video : -26 ms
Stream size : 170 MiB (1%)
Title : DVO [1+1] 2.0
Language : Ukrainian
Service kind : Complete Main
Default : Yes
Forced : Yes

Audio #2
ID : 3
Format : AC-3
Format/Info : Audio Coding 3
Commercial name : Dolby Digital
Codec ID : A_AC3
Duration : 2 h 4 min
Bit rate mode : Constant
Bit rate : 192 kb/s
Channel(s) : 2 channels
Channel layout : L R
Sampling rate : 48.0 kHz
Frame rate : 31.250 FPS (1536 SPF)
Compression mode : Lossy
Delay relative to video : -26 ms
Stream size : 170 MiB (1%)
Title : MVO [AMC] 2.0
Language : Ukrainian
Service kind : Complete Main
Default : No
Forced : No

Audio #3
ID : 4
Format : AC-3
Format/Info : Audio Coding 3
Commercial name : Dolby Digital
Codec ID : A_AC3
Duration : 2 h 4 min
Bit rate mode : Constant
Bit rate : 192 kb/s
Channel(s) : 2 channels
Channel layout : L R
Sampling rate : 48.0 kHz
Frame rate : 31.250 FPS (1536 SPF)
Compression mode : Lossy
Delay relative to video : -26 ms
Stream size : 170 MiB (1%)
Title : MVO [ICTV] 2.0
Language : Ukrainian
Service kind : Complete Main
Default : No
Forced : No

Audio #4
ID : 5
Format : AC-3
Format/Info : Audio Coding 3
Commercial name : Dolby Digital
Codec ID : A_AC3
Duration : 2 h 4 min
Bit rate mode : Constant
Bit rate : 192 kb/s
Channel(s) : 2 channels
Channel layout : L R
Sampling rate : 48.0 kHz
Frame rate : 31.250 FPS (1536 SPF)
Compression mode : Lossy
Delay relative to video : -26 ms
Stream size : 170 MiB (1%)
Title : MVO [НТН] [УКРАЇНА] [ІНТЕР] 2.0 | Студія "Так Треба Продакшн"
Language : Ukrainian
Service kind : Complete Main
Default : No
Forced : No

Audio #5
ID : 6
Format : XLL
Format/Info : Digital Theater Systems
Commercial name : -HD Master Audio
Codec ID : A_DTS
Duration : 2 h 4 min
Bit rate mode : Variable
Bit rate : 4 200 kb/s
Channel(s) : 6 channels
Channel layout : C L R Ls Rs LFE
Sampling rate : 48.0 kHz
Frame rate : 93.750 FPS (512 SPF)
Bit depth : 24 bits
Compression mode : Lossless
Stream size : 3.64 GiB (14%)
Title : Original -HD MA 5.1
Language : English
Default : No
Forced : No

Audio #6
ID : 7
Format : AC-3
Format/Info : Audio Coding 3
Commercial name : Dolby Digital
Codec ID : A_AC3
Duration : 2 h 4 min
Bit rate mode : Constant
Bit rate : 448 kb/s
Channel(s) : 6 channels
Channel layout : L R C LFE Ls Rs
Sampling rate : 48.0 kHz
Frame rate : 31.250 FPS (1536 SPF)
Compression mode : Lossy
Delay relative to video : -26 ms
Stream size : 398 MiB (1%)
Title : Original 5.1
Language : English
Service kind : Complete Main
Default : No
Forced : No

Audio #7
ID : 8
Format : AC-3
Format/Info : Audio Coding 3
Commercial name : Dolby Digital
Codec ID : A_AC3
Duration : 2 h 4 min
Bit rate mode : Constant
Bit rate : 192 kb/s
Channel(s) : 2 channels
Channel layout : L R
Sampling rate : 48.0 kHz
Frame rate : 31.250 FPS (1536 SPF)
Compression mode : Lossy
Delay relative to video : 6 ms
Stream size : 170 MiB (1%)
Title : Original 2.0 | Commentary by Director Rob Cohen
Language : English
Service kind : Complete Main
Default : No
Forced : No

Text #1
ID : 9
Format : UTF-8
Codec ID : S_TEXT/UTF8
Codec ID/Info : UTF-8 Plain Text
Duration : 1 h 52 min
Bit rate : 43 b/s
Count of elements : 902
Stream size : 35.3 KiB (0%)
Title : Eng (Full) SRT
Language : English
Default : No
Forced : No

Text #2
ID : 10
Format : PGS
Muxing mode : zlib
Codec ID : S_HDMV/PGS
Codec ID/Info : Picture based subtitle format used on BDs/HD-DVDs
Duration : 1 h 52 min
Bit rate : 24.7 kb/s
Count of elements : 1808
Stream size : 19.8 MiB (0%)
Title : Eng (Full) #1 PGS
Language : English
Default : No
Forced : No

Text #3
ID : 11
Format : PGS
Muxing mode : zlib
Codec ID : S_HDMV/PGS
Codec ID/Info : Picture based subtitle format used on BDs/HD-DVDs
Duration : 1 h 52 min
Bit rate : 23.1 kb/s
Count of elements : 1738
Stream size : 18.5 MiB (0%)
Title : Eng (Full) #2 PGS
Language : English
Default : No
Forced : No

Text #4
ID : 12
Format : PGS
Muxing mode : zlib
Codec ID : S_HDMV/PGS
Codec ID/Info : Picture based subtitle format used on BDs/HD-DVDs
Duration : 1 h 56 min
Bit rate : 29.2 kb/s
Count of elements : 2792
Stream size : 24.4 MiB (0%)
Title : Eng (SDH) PGS
Language : English
Default : No
Forced : No

Text #5
ID : 13
Format : PGS
Muxing mode : zlib
Codec ID : S_HDMV/PGS
Codec ID/Info : Picture based subtitle format used on BDs/HD-DVDs
Duration : 1 h 58 min
Bit rate : 54.3 kb/s
Count of elements : 3329
Stream size : 45.8 MiB (0%)
Title : Eng (Full) | Commentary by Director Rob Cohen
Language : English
Default : No
Forced : No

Menu
00:00:00.000 : en:Start
00:03:41.763 : en:Agent Augustus Gibbons
00:05:40.423 : en:Xander's Little Bridge Stunt
00:10:05.438 : en:Surprise Party
00:12:29.415 : en:The Diner Test
00:19:22.369 : en:El Jefe
00:21:51.810 : en:Fuerza Aerea Colombiana Strike
00:23:59.396 : en:Hell on Wheels
00:27:51.044 : en:Xander's Lucky Day
00:32:27.779 : en:Milan Sova
00:34:19.390 : en:Anarchy 99
00:42:18.827 : en:Agent Toby Lee Shavers
00:45:49.163 : en:$1.2 Million Car Order
00:50:25.647 : en:"Technologicque Park"
00:57:10.385 : en:Tucking Xander Into Bed
01:01:16.297 : en:Lunch with a Secret Agent
01:04:33.828 : en:The Kirill Kill
01:12:01.191 : en:Ahab
01:14:50.235 : en:Silent Night
01:17:43.075 : en:Fire in the Hole!
01:20:59.521 : en:"I Switched Sides"
01:26:36.107 : en:Taking Out the Communications Tower
01:32:44.558 : en:Saved By the Prague Police
01:38:05.462 : en:No Smoking Allowed
01:39:01.226 : en:Wipe Out
01:44:08.951 : en:Going Straight Through
01:45:57.017 : en:Dropping in on Ahab
01:49:40.615 : en:"Welcome to the Xander Zone!"
02:04:02.685 : en:02:04:02.685
Скріншоти
Джерело: &
Висловлюю подяки: п. taraskill1, п. _oles - за зведення, п. SweetN, п. xslim, п. drakon87, п. Romario_O, п. robotron005, п. slavik_v_z - запис з ТБ.
Також дякую п. realnitro за українізований постер.
Особиста оцінка: 9 - давно не бачив настільки якісне кіно



Золотий реліз (завантажене не впливає на рейтинг)
 Трекер:    Зареєстрований   

Завантажити / скачати фільм українською



відео для новачків



 Зареєстрований:   2020-02-26 02:02
 Розмір:   26.53 GB 
 Оцінка фільму:   9.8/10 (Голосів: 12)
   
Інші релізи
MakRA 
VIP


З нами з: 11.11.18
Востаннє: 24.09.20
Повідомлень: 1120

2020-02-25 23:33  
Реліз оновлено 26.02.2020
Оновлено доріжку від 1+1. Вибачайте за незручності Happy

Ваш часовий пояс: GMT + 2 Години

Нова тема   Відповісти