Тренувальний день / Training Day (2001) 1080p H.265 Ukr/Eng | Sub Eng

Нові коментарі

Нова тема   Відповісти
Автор Повідомлення
Anonymous 







2020-02-25 01:58  
Тренувальний день / Training Day (2001) 1080p H.265 Ukr/Eng | Sub Eng

Тренувальний день / Training Day (2001) 1080p H.265 Ukr/Eng | Sub Eng


Жанр: кримінальний, драма, трилер
Країна: США, Австралія
Кінокомпанія: Warner Bros., Village Roadshow Pictures, NPV Entertainment
Режисер: Антуан Фукуа / Antoine Fuqua
Актори: Дензел Вашингтон / Denzel Washington, Ітан Хоук / Ethan Hawke, Скотт Гленн / Scott Glenn, Том Беренджер / Tom Berenger, Харріс Юлін / Harris Yulin, Реймонд Дж. Беррі, / Raymond J. Barry, Кліфф Кертіс / Cliff Curtis, Dr. Dre, Snoop Dogg, Мейсі Грей / Macy Gray, Єва Мендес / Eva Mendes та інші.

Сюжет:
Фільм присвячений подіям, що сталися в перший день роботи новачка-поліцейського Джейка Хойта, що пішов на роботу в поліцію Лос-Анджелеса, а конкретно - у відділ по боротьбі з наркотиками. Йому, як це завжди буває, потрапив досвідчений партнер - Алонзо, корумпований поліцейський-ветеран.

Американцям уже не звикати до того, що на вулицях їх країни ведеться щоденна війна між наркодилерами й поліцією. Алонзо давно засвоїв той факт, що законними методами з цим злом боротися марно, а тому він виробив якусь філософію, що балансує на межі добра і зла.

Тривалість: 02:02:02
Якість:

Відео:
кодек: H.265 (HEVC)
розмір кадру: 1920 x 808
бітрейт: 5 054 кб/с
бітова глибина: 10 біт

Увага! Перед завантаженням переконайтесь, що ваш пристрій відтворення (та/або ПЗ) підтримує H.265 (HEVC)

Аудіо # 1:
мова: українська
переклад: багатоголосий закадровий ,
кодек: AC-3 2.0
бітрейт: 192 кб/с

Аудіо # 2:
мова: англійська
переклад: оригінал
кодек: 5.1
бітрейт: 1511 кб/с

Аудіо # 3:
мова: англійська
переклад: оригінал | коментарі
кодек: AC-3 2.0
бітрейт: 192 кб/с

Субтитри # 1: (Full)
мова: англійська
тип: програмні (м'які)
формат: *.srt


Info
Код:
General
Unique ID                                : 89821516896106235431798926141359043773 (0x4392FEB2082347E80300F78D91B6B4BD)
Complete name                            : Training Day (2001) 1080p H.265 [UKR_ENG] [Hurtom].
Format                                   :
Format version                           : Version 4
File size                                : 5.93 GiB
Duration                                 : 2 h 2 min
Overall bit rate                         : 6 951 kb/s
Movie name                               : Тренувальний день / Training Day (2001)
Encoded date                             : UTC 2020-02-24 22:51:51
Writing application                      : v20.0.0 ('I Am The Sun') 64-bit
Writing library                          : libebml v1.3.5 + v1.4.8
Cover                                    : Yes
Attachments                              : Cover.jpg

Video
ID                                       : 1
Format                                   : HEVC
Format/Info                              : High Efficiency Video Coding
Format profile                           : Main [email protected]@High
Codec ID                                 : V_MPEGH/ISO/HEVC
Duration                                 : 2 h 2 min
Bit rate                                 : 5 054 kb/s
Width                                    : 1 920 pixels
Height                                   : 808 pixels
Display aspect ratio                     : 2.40:1
Frame rate mode                          : Constant
Frame rate                               : 23.976 (24000/1001) FPS
Color space                              : YUV
Chroma subsampling                       : 4:2:0
Bit depth                                : 10 bits
Bits/(Pixel*Frame)                       : 0.136
Stream size                              : 4.31 GiB (73%)
Title                                    : Тренувальний день / Training Day (2001)
Writing library                          : x265 3.2.1+3-b4b2ecac21f6:[Windows][MSVC 1924][64 bit] 10bit
Encoding settings                        : cpuid=1111039 / frame-threads=3 / numa-pools=12 / wpp / no-pmode / no-pme / no-psnr / no-ssim / log-level=2 / input-csp=1 / input-res=1920x808 / interlace=0 / total-frames=175569 / level-idc=41 / high-tier=1 / uhd-bd=0 / ref=5 / no-allow-non-conformance / no-repeat-headers / annexb / no-aud / no-hrd / info / hash=0 / no-temporal-layers / open-gop / min-keyint=23 / keyint=240 / gop-lookahead=0 / bframes=13 / b-adapt=2 / b-pyramid / bframe-bias=0 / rc-lookahead=60 / lookahead-slices=0 / scenecut=40 / radl=0 / no-splice / no-intra-refresh / ctu=64 / min-cu-size=8 / rect / amp / max-tu-size=32 / tu-inter-depth=4 / tu-intra-depth=4 / limit-tu=1 / rdoq-level=2 / dynamic-rd=0.00 / no-ssim-rd / signhide / no-tskip / nr-intra=0 / nr-inter=0 / no-constrained-intra / no-strong-intra-smoothing / max-merge=5 / limit-refs=3 / no-limit-modes / me=3 / subme=7 / merange=57 / temporal-mvp / no-hme / weightp / weightb / no-analyze-src-pics / deblock=-3:-3 / no-sao / no-sao-non-deblock / rd=6 / selective-sao=0 / no-early-skip / rskip / no-fast-intra / no-tskip-fast / no-cu-lossless / b-intra / no-splitrd-skip / rdpenalty=0 / psy-rd=2.00 / psy-rdoq=1.00 / no-rd-refine / no-lossless / cbqpoffs=0 / crqpoffs=0 / rc=crf / crf=20.5 / qcomp=0.70 / qpstep=4 / stats-write=0 / stats-read=0 / vbv-maxrate=50000 / vbv-bufsize=50000 / vbv-init=0.9 / crf-max=0.0 / crf-min=0.0 / ipratio=1.40 / pbratio=1.30 / aq-mode=2 / aq-strength=1.00 / no-cutree / zone-count=1 / zones: / start-frame=166400 / end-frame=175568 / qp=36 / no-strict-cbr / qg-size=32 / no-rc-grain / qpmax=69 / qpmin=0 / no-const-vbv / sar=1 / overscan=0 / videoformat=5 / range=0 / colorprim=2 / transfer=2 / colormatrix=2 / chromaloc=0 / display-window=0 / cll=0,0 / min-luma=0 / max-luma=1023 / log2-max-poc-lsb=8 / vui-timing-info / vui-hrd-info / slices=1 / no-opt-qp-pps / no-opt-ref-list-length-pps / no-multi-pass-opt-rps / scenecut-bias=0.00 / no-opt-cu-delta-qp / no-aq-motion / no-hdr / no-hdr-opt / no-dhdr10-opt / no-idr-recovery-sei / analysis-reuse-level=5 / scale-factor=0 / refine-intra=0 / refine-inter=0 / refine-mv=1 / refine-ctu-distortion=0 / no-limit-sao / ctu-info=0 / no-lowpass-dct / refine-analysis-type=0 / copy-pic=1 / max-ausize-factor=1.0 / no-dynamic-refine / no-single-sei / no-hevc-aq / no-svt / no-field / qp-adaptation-range=1.00
Language                                 : English
Default                                  : Yes
Forced                                   : No

Audio #1
ID                                       : 2
Format                                   : AC-3
Format/Info                              : Audio Coding 3
Commercial name                          : Dolby Digital
Codec ID                                 : A_AC3
Duration                                 : 2 h 2 min
Bit rate mode                            : Constant
Bit rate                                 : 192 kb/s
Channel(s)                               : 2 channels
Channel layout                           : L R
Sampling rate                            : 48.0 kHz
Frame rate                               : 31.250 FPS (1536 SPF)
Compression mode                         : Lossy
Stream size                              : 168 MiB (3%)
Title                                    : / 2.0 Ch / 192 kbps / БЗ / Inter, NLO
Language                                 : Ukrainian
Service kind                             : Complete Main
Default                                  : Yes
Forced                                   : Yes

Audio #2
ID                                       : 3
Format                                   :
Format/Info                              : Digital Theater Systems
Codec ID                                 : A_DTS
Duration                                 : 2 h 2 min
Bit rate mode                            : Constant
Bit rate                                 : 1 510 kb/s
Channel(s)                               : 6 channels
Channel layout                           : C L R Ls Rs LFE
Sampling rate                            : 48.0 kHz
Frame rate                               : 93.750 FPS (512 SPF)
Bit depth                                : 24 bits
Compression mode                         : Lossy
Stream size                              : 1.29 GiB (22%)
Title                                    : / 5.1 Ch / 1509 kbps / Original
Language                                 : English
Default                                  : No
Forced                                   : No

Audio #3
ID                                       : 4
Format                                   : AC-3
Format/Info                              : Audio Coding 3
Commercial name                          : Dolby Digital
Codec ID                                 : A_AC3
Duration                                 : 2 h 2 min
Bit rate mode                            : Constant
Bit rate                                 : 192 kb/s
Channel(s)                               : 2 channels
Channel layout                           : L R
Sampling rate                            : 48.0 kHz
Frame rate                               : 31.250 FPS (1536 SPF)
Compression mode                         : Lossy
Stream size                              : 168 MiB (3%)
Title                                    : / 2.0 Ch / 192 kbps / Original / Commentary
Language                                 : English
Service kind                             : Complete Main
Default                                  : No
Forced                                   : No

Text
ID                                       : 5
Format                                   : UTF-8
Codec ID                                 : S_TEXT/UTF8
Codec ID/Info                            : UTF-8 Plain Text
Duration                                 : 1 h 54 min
Bit rate                                 : 51 b/s
Count of elements                        : 1367
Stream size                              : 43.0 KiB (0%)
Title                                    : Full
Language                                 : English
Default                                  : No
Forced                                   : No

Menu
00:00:00.000                             : en:It's Today
00:03:53.524                             : en:Tell Me a Story
00:08:02.356                             : en:Leave Family Out
00:12:20.072                             : en:Drug Roust
00:15:37.394                             : en:Narcotics in His Blood
00:20:35.943                             : en:Joking with Roger
00:25:42.290                             : en:Alley Incident
00:32:13.931                             : en:It Takes a Wolf
00:36:12.670                             : en:Collaring Sammy
00:40:41.063                             : en:Sandman's Wife
00:45:20.467                             : en:Firing Line
00:47:15.207                             : en:Wolf or Sheep?
00:49:24.002                             : en:Mother and Son
00:55:04.259                             : en:Lapd's Finest
00:59:59.762                             : en:The Unit Punches In
01:02:56.272                             : en:Roger Out of His Misery
01:09:56.859                             : en:The Scenario
01:15:08.253                             : en:This Is the Game
01:20:29.699                             : en:Five-Card Draw
01:24:17.385                             : en:The Drop on the Cop
01:29:26.277                             : en:Smiley's Cousin
01:33:27.602                             : en:"I'm Here for Alonzo"
01:37:21.335                             : en:Preserving Life
01:41:25.579                             : en:Rooftop Battle
01:45:00.210                             : en:What Jake Learned Today
01:48:44.184                             : en:"You Can't Kill Me"
01:52:39.961                             : en:Going Home
01:55:43.144                             : en:End Credits (W.O.L.V.E.S., American Dream, #1)
Світлини




Джерело: &
Особиста оцінка: 0 - не дивився


Срібний реліз (на рейтинг впливає 50% завантаженого)
 Трекер:    Зареєстрований   

Завантажити / скачати фільм українською



відео для новачків



 Зареєстрований:   2020-02-25 01:58
 Розмір:   5.93 GB 
 Оцінка фільму:   9.8/10 (Голосів: 10)
   
Ваш часовий пояс: GMT + 2 Години

Нова тема   Відповісти