Коломбо (Сезон 3) / Columbo (Season 3) (1973-1974) Remux 1080i Ukr/Eng | Sub Eng

Нові коментарі

Нова тема   Відповісти
Автор Повідомлення
MakRA 
VIP


З нами з: 10.11.18
Востаннє: 03.12.20
Повідомлень: 1164

2020-02-24 13:17  
Коломбо (Сезон 3) / Columbo (Season 3) (1973-1974) Remux 1080i Ukr/Eng | Sub Eng

Коломбо (Сезон 3) / Columbo (Season 3) (1973-1974) Remux 1080i Ukr/Eng | Sub Eng

Альтернативна обкладинка до третього сезону:

Жанр: детектив, кримінальний
Країна: США



Кінокомпанія: Universal Studios
Телеканали: NBC (1968–1978), ABC (1989–2003)
Композитор: Генрі Манчіні [Henry Mancini]

Сюжет:
Головний герой серіалу - лейтенант Коломбо (Пітер Фальк) служить в відділі вбивств поліції Лос-Анджелеса. На його долю випадає, як правило, дуже заплутаний, ретельно спланований і бездоганно виконаний злочин, хоча сам лейтенант не справляє враження супергероя. Але чим безглуздіше виглядає сам лейтенант, невисокий чоловік з незграбними жестами і незграбною ходою, постійно вдягнений у зім’ятий плащ, охочий поговорити і з дешевої сигарою в зубах, тим більше захоплення викликає те, як йому, зовні розсіяному, що розмовляє часом на абстрактні теми, які не мають ніякого відношення до розслідування, вдається безпомилково обчислити злочинця з декількох підозрюваних.

Недосвідченому спостерігачеві може навіть здатися, що і розслідування ніякого не ведеться, просто зайшов у будинку цікавий роззява і "дістає" всіх своїми розпитування. Але здається простакуватість Коломбо - лише маска, за якою ховається людина, яка не пропускає жодної деталі, що володіє гострим розумом, проникливістю і видатними аналітичними здібностями, а його манери, смердюча сигара і балакучість, дратують злочинців і змушують їх нервувати, допускати одну помилку за іншою і, в решті решт, приводять на лаву підсудних..

Цікаве про фільм та зйомки:

- "Коломбо" - один з найтриваліших детективних серіалів. Телеепопея знімалася впродовж 35 років: з 1968 по 2003 роки. Пітер Фальк почав зніматися в серіалі в 41 рік, а в останній серіі йому вже було 73.

- Лейтенант Коломбо став культовою фігурою світу детективів поряд із Шерлоком Холмсом, Міс Марпл і Еркюлем Пуаро.

- Місіс Коломбо, незважаючи на часті згадки про неї і численні цитати з її висловів, так і не з'явилася на екрані.

- Ім'я лейтенанта і його дружини жодного разу не згадується в серіалі: лейтенанта звуть тільки на прізвище, а свію "половинку" Коломбо називає не інакше як «моя дружина» або «місіс Коломбо». Ці факти обговорюються фанатами серіалу й досі.

- За довгу історію проекту в ньому знялося безліч різних артистів, наприклад, тут можна буде побачити таких зірок як: Кім Кетролл, Фей Данауей, Леслі Нільсен, Мартін Шин, Джимі Лі Кертіс та інших.

- Знамените "примруження Коломбо" - це не якийсь особливий хід. Насправді актор Пітер Фальк через хворобу втратив око в дитинстві. Сам артист з цього приводу не переживав і навіть жартував над собою.

- Особливість "Коломбо" в тому, що з самого початку відомо хто скоює злочин. Найцікавіше - це той шлях, який проходить детектив, щоб викрити вбивцю.

- Плащ лейтенанта Коломбо Пітер Фальк особисто відшукав серед непотрібного мотлоху. Вічна сигара в руці - теж ідея Пітера, який був завзятим курцем..

Історія створення:

Спочатку Фальк відмовлявся зніматися в цьому серіалі. Він часто з'являвся на телебаченні і не хотів стати заручником образу адвоката або поліцейського з серіалу. Після довгих сперечань з продюсерами Фальк нарешті погодився брати участь в пілотному випуску під назвою «Рецепт вбивства», що вийшов на екрани в 1968 році.

Було покладено успішний початок, і почалися репетиції в перших епізодах «Коломбо» в 1970 році. «Коломбо» відрізнявся від будь-якого іншого серіалу про поліцейського-детектива тим, що його головний герой - звичайна людина, що справляє враження, що він не на своєму місці; він носить мішкуваті костюми, турбується про свою дружину і тримає собаку.

Продюсери переживали, що глядачам набридне заплутаний, але мало динамічний сюжет, і не раз намагалися ввести елементи, пов'язані з сексом або насильством. Розуміючи, що налаштовує всіх проти себе, Фальк всіляко відкидав ці рішення, наполягаючи на збереженні сценарію в початковому вигляді.

Фальк відрізнявся від інших телевізійних акторів тим, що вимагав надати йому більше часу, щоб як слід відрепетирувати сцену. Він запам'ятався доводами, які він висував сценаристам і продюсерам. «Пітер був як скалка, - згадує Вільям Лінк, - у нього було тверде переконання щодо наших сценаріїв, він не приймав ніяких змін ним же встановлених стандартів. Виснажившись сперечатися, ми дозволили йому написати власний сценарій, щоб довести, наскільки це важко ».

Річард Левінсон згадує, що та зйомка замість належних дванадцяти тривала тринадцять або чотирнадцять днів: «Він умовив нас, що так для фільму буде набагато краще».

Розчарувавшись в роботі сценаристів, Фальк в 1977 році пішов з проекту. Повернувшись в 1989 році, Фальк не став більш податливим в питаннях знімального процесу, відмовляючись працювати за гонорар менше 600 000 доларів за один епізод. «Справа не в грошах, справа - в принципі, - запевняє актор. - Я хочу, щоб вони знали, що я серйозно ставлюся до роботи і ця робота повинна бути найвищої якості.


Перелік серій третього сезону:
1. Гарна, але летальна (Жертва краси) / Etude in Black (23 вересня 1973)

Режисер: Жанно Шварц [Jeannot Szwarc]
Сценарій: Джексон Гілліс [Jackson Gillis], Мірна Берковічі [Myrna Bercovici].
Актори: Пітер Фальк [Peter Michael Falk], Віра Майлз [Vera Miles], Мартін Шін [Martin Sheen], Вінсент Прайс [Vincent Price], Брюс Кірбі [Bruce Kirby] і Джон Фіннеган [John Finnegan].

Сюжет:
Власниця косметичної фірми Вівека Скотт дізнається від секретаря конкуруючої компанії Ширлі Блейн, що її головний фахівець і колишній коханець Карл Лессінг збирається продати формулу омолоджуючого крему її конкуренту, Девіду Лангу. Прийшовши до Карла додому, вона намагається підкупити його. Карл готовий піти їй назустріч, але при цьому хоче бути партнером. Розгнівана Вівека вбиває його. Поки Коломбо веде розслідування, секретарка Девіда Ланга дізнається, хто вбив Карла Лессінга, і починає шантажувати Скотт.


Тривалість: 01:13:54
Якість: Remux 1080i
Відео:
кодек:
розмір кадру: 1920 х 1080
бітрейт: 29,8 Мб/с

Аудіо # 1:
мова: українська
переклад: багатоголосий закадровий | Так Треба Продакшн
кодек: 2.0
бітрейт: 192 кб/с

Аудіо # 2:
мова: англійська
переклад: оригінал
кодек: 2.0
бітрейт: 448 кб/с

Субтитри # 1: (Full)
мова: англійська
тип: програмні (м'які)
формат: *.srt

Субтитри # 2: (Full)
мова: англійська
тип: пререндерні
формат: *.pgs

Збережено оригінальні розділи, як на Blu-ray.
Info
General
Unique ID : 324114389211437595171799793298528969080 (0xF3D629277EEF5FDAC64D4028073AA178)
Complete name : F:\Columbo. Collection\Columbo. Season 3 (1973-1974) Remux 1080i UkrEng Sub Eng [Hurtom]\Columbo. S3E01 Lovely But Lethal (1973) Remux 1080i UkrEng Sub Eng [Hurtom].
Format :
Format version : Version 4
File size : 15.7 GiB
Duration : 1 h 13 min
Overall bit rate mode : Variable
Overall bit rate : 30.4 Mb/s
Movie name : Коломбо. Сезон 3, Епізод 01 "Гарна, але летальна" (Жертва краси) / Columbo. S3E01 "Lovely But Lethal" (1973) Remux 1080i Ukr/Eng | Sub Eng [Hurtom]
Encoded date : UTC 2020-02-10 11:26:21
Writing application : v25.0.0 ('Prog Noir') 64-bit
Writing library : libebml v1.3.6 + v1.4.9
Cover : Yes
Attachments : cover.jpg

Video
ID : 1
Format : AVC
Format/Info : Advanced Video Codec
Format profile : [email protected]
Format settings : CABAC / 4 Ref Frames
Format settings, CABAC : Yes
Format settings, Reference fra : 4 frames
Codec ID : V_MPEG4/ISO/AVC
Duration : 1 h 13 min
Bit rate mode : Variable
Bit rate : 29.8 Mb/s
Maximum bit rate : 40.0 Mb/s
Width : 1 920 pixels
Height : 1 080 pixels
Display aspect ratio : 16:9
Frame rate mode : Constant
Frame rate : 29.970 (30000/1001) FPS
Color space : YUV
Chroma subsampling : 4:2:0
Bit depth : 8 bits
Scan type : MBAFF
Scan type, store method : Interleaved fields
Scan order : Top Field First
Bits/(Pixel*Frame) : 0.479
Stream size : 15.4 GiB (98%)
Title : Columbo. S3E01 "Lovely But Lethal" (1973) Remux 1080i Ukr/Eng | Sub Eng [Hurtom]
Language : Ukrainian
Default : Yes
Forced : Yes

Audio #1
ID : 2
Format : AC-3
Format/Info : Audio Coding 3
Commercial name : Dolby Digital
Codec ID : A_AC3
Duration : 1 h 13 min
Bit rate mode : Constant
Bit rate : 192 kb/s
Channel(s) : 2 channels
Channel layout : L R
Sampling rate : 48.0 kHz
Frame rate : 31.250 FPS (1536 SPF)
Compression mode : Lossy
Stream size : 101 MiB (1%)
Title : MVO [НТН] 2.0 | Студія "Так Треба Продакшн"
Language : Ukrainian
Service kind : Complete Main
Default : Yes
Forced : Yes

Audio #2
ID : 3
Format : AC-3
Format/Info : Audio Coding 3
Commercial name : Dolby Digital
Codec ID : A_AC3
Duration : 1 h 13 min
Bit rate mode : Constant
Bit rate : 448 kb/s
Channel(s) : 2 channels
Channel layout : L R
Sampling rate : 48.0 kHz
Frame rate : 31.250 FPS (1536 SPF)
Compression mode : Lossy
Stream size : 237 MiB (1%)
Title : Original 2.0
Language : English
Service kind : Complete Main
Default : No
Forced : No

Text #1
ID : 4
Format : UTF-8
Codec ID : S_TEXT/UTF8
Codec ID/Info : UTF-8 Plain Text
Duration : 1 h 12 min
Bit rate : 78 b/s
Count of elements : 1045
Stream size : 42.1 KiB (0%)
Title : Eng (Full) SRT
Language : English
Default : No
Forced : No

Text #2
ID : 5
Format : PGS
Muxing mode : zlib
Codec ID : S_HDMV/PGS
Codec ID/Info : Picture based subtitle format used on BDs/HD-DVDs
Duration : 1 h 12 min
Bit rate : 53.9 kb/s
Count of elements : 2090
Stream size : 28.1 MiB (0%)
Title : Eng (Full) PGS
Language : English
Default : No
Forced : No

Menu
00:00:00.000 : en:00:00:00.000
00:00:32.532 : en:00:00:32.532
00:10:32.999 : en:00:10:32.999
00:18:17.129 : en:00:18:17.129
00:23:30.509 : en:00:23:30.509
00:35:12.644 : en:00:35:12.644
00:40:48.146 : en:00:40:48.146
00:47:59.009 : en:00:47:59.009
00:59:05.275 : en:00:59:05.275
01:05:51.748 : en:01:05:51.748
01:13:20.997 : en:01:13:20.997
Скріншоти
2. Старий портвейн / Any Old Port in a Storm (7 жовтня 1973)

Режисер: Лео Пенн [Leonard Francis Penn]
Сценарій: Стенлі Ральф Росс [Stanley Ralph Ross], Ларрі Коен [Larry Cohen]
Актори: Пітер Фальк [Peter Michael Falk], Дональд Плезенс [Donald Henry Pleasence], Дана Елкар [Dana Elcar], Джулі Харріс [Julie Anne Harris].

Сюжет:
Гурман і енофіл Едріан Карсіні успадкував невелику винну справу, що спеціалізується на збиткових, але дорогих винах. Його зведений брат і партнер Енріко при цьому став власником землі. Енріко повідомляє про свій намір одружитися і продати землі під виноградники конкурентам, виробникам дешевих, але прибуткових вин. Едріан не згоден з братом; в сварці він б'є Енріко по голові і залишає вмирати в герметичному винному погребі, а пізніше інсценує нещасний випадок, щоб приховати злочин. Коломбо підозрює Едріана у вбивстві, і, по ходу розслідування, осягає основи виноробства.


Тривалість: 01:35:27
Якість: Remux 1080i
Відео:
кодек:
розмір кадру: 1920 х 1080
бітрейт: 26,8 Мб/с

Аудіо # 1:
мова: українська
переклад: багатоголосий закадровий | Так Треба Продакшн
кодек: 2.0
бітрейт: 192 кб/с

Аудіо # 2:
мова: англійська
переклад: оригінал
кодек: 2.0
бітрейт: 448 кб/с

Субтитри # 1: (Full)
мова: англійська
тип: програмні (м'які)
формат: *.srt

Субтитри # 2: (Full)
мова: англійська
тип: пререндерні
формат: *.pgs

Збережено оригінальні розділи, як на Blu-ray.
Info
General
Unique ID : 166730914709936654244537886059284037823 (0x7D6F34C4E70C03A49B4FA1FF5D5280BF)
Complete name : F:\Columbo. Collection\Columbo. Season 3 (1973-1974) Remux 1080i UkrEng Sub Eng [Hurtom]\Columbo. S3E02 Any Old Port in a Storm (1973) Remux 1080i UkrEng Sub Eng [Hurtom].
Format :
Format version : Version 4
File size : 18.3 GiB
Duration : 1 h 35 min
Overall bit rate mode : Variable
Overall bit rate : 27.4 Mb/s
Movie name : Коломбо. Сезон 3, Епізод 02 "Старий портвейн" / Columbo. S3E02 "Any Old Port in a Storm" (1973) Remux 1080i Ukr/Eng | Sub Eng [Hurtom]
Encoded date : UTC 2020-02-10 09:33:00
Writing application : v25.0.0 ('Prog Noir') 64-bit
Writing library : libebml v1.3.6 + v1.4.9
Cover : Yes
Attachments : cover.jpg

Video
ID : 1
Format : AVC
Format/Info : Advanced Video Codec
Format profile : [email protected]
Format settings : CABAC / 4 Ref Frames
Format settings, CABAC : Yes
Format settings, Reference : 4 frames
Codec ID : V_MPEG4/ISO/AVC
Duration : 1 h 35 min
Bit rate mode : Variable
Bit rate : 26.8 Mb/s
Maximum bit rate : 40.0 Mb/s
Width : 1 920 pixels
Height : 1 080 pixels
Display aspect ratio : 16:9
Frame rate mode : Constant
Frame rate : 29.970 (30000/1001) FPS
Color space : YUV
Chroma subsampling : 4:2:0
Bit depth : 8 bits
Scan type : MBAFF
Scan type, store method : Interleaved fields
Scan order : Top Field First
Bits/(Pixel*Frame) : 0.431
Stream size : 17.9 GiB (98%)
Title : Columbo. S3E02 "Any Old Port in a Storm" (1973) Remux 1080i Ukr/Eng | Sub Eng [Hurtom by MakRa]
Language : Ukrainian
Default : Yes
Forced : Yes

Audio #1
ID : 2
Format : AC-3
Format/Info : Audio Coding 3
Commercial name : Dolby Digital
Codec ID : A_AC3
Duration : 1 h 35 min
Bit rate mode : Constant
Bit rate : 192 kb/s
Channel(s) : 2 channels
Channel layout : L R
Sampling rate : 48.0 kHz
Frame rate : 31.250 FPS (1536 SPF)
Compression mode : Lossy
Stream size : 131 MiB (1%)
Title : MVO [НТН] 2.0 | Студія "Так Треба Продакшн"
Language : Ukrainian
Service kind : Complete Main
Default : Yes
Forced : Yes

Audio #2
ID : 3
Format : AC-3
Format/Info : Audio Coding 3
Commercial name : Dolby Digital
Codec ID : A_AC3
Duration : 1 h 35 min
Bit rate mode : Constant
Bit rate : 448 kb/s
Channel(s) : 2 channels
Channel layout : L R
Sampling rate : 48.0 kHz
Frame rate : 31.250 FPS (1536 SPF)
Compression mode : Lossy
Stream size : 306 MiB (2%)
Title : Original 2.0
Language : English
Service kind : Complete Main
Default : No
Forced : No

Text #1
ID : 4
Format : UTF-8
Codec ID : S_TEXT/UTF8
Codec ID/Info : UTF-8 Plain Text
Duration : 1 h 34 min
Bit rate : 68 b/s
Count of elements : 1289
Stream size : 46.9 KiB (0%)
Title : Eng (Full) SRT
Language : English
Default : No
Forced : No

Text #2
ID : 5
Format : PGS
Muxing mode : zlib
Codec ID : S_HDMV/PGS
Codec ID/Info : Picture based subtitle format used on BDs/HD-DVDs
Duration : 1 h 34 min
Bit rate : 46.5 kb/s
Count of elements : 2578
Stream size : 31.3 MiB (0%)
Title : Eng (Full) PGS
Language : English
Default : No
Forced : No

Menu
00:00:00.000 : en:Chapter 1
00:00:32.032 : en:Chapter 2
00:15:33.799 : en:Chapter 3
00:20:04.369 : en:Chapter 4
00:23:27.706 : en:Chapter 5
00:27:21.606 : en:Chapter 6
00:35:35.066 : en:Chapter 7
00:41:01.992 : en:Chapter 8
00:53:11.988 : en:Chapter 9
00:57:38.922 : en:Chapter 10
01:08:46.489 : en:Chapter 11
01:12:45.361 : en:Chapter 12
01:27:14.963 : en:Chapter 13
01:34:54.021 : en:Chapter 14
Скріншоти
3. Кандидат на вбивство / Candidate for Crime (4 листопада 1973)

Режисер: Борис Сагал [Boris Sagal]
Сценарій: Ірвінг Перлберг [William Perlberg], Елвін Р. Фрідман [Alvin R. Friedman], Роланд Кіббі [Roland Kibbee], Дін Харгроув [Dean Hargrove]
Актори: Пітер Фальк [Peter Michael Falk], Джекі Купер [Jackie Cooper] і Кеті Сагал [Katey Sagal].

Сюжет:
Кандидат в сенатори Нельсон Хейвард вбиває керівника свого передвиборчого штабу, Гаррі Стоуна. Хейвард все розрахував: він запропонував Стоуну сфальсифікувати загрози життю, спрямовані на свою адресу, і Стоун погодився. Він заманює Стоуна, одягненого як Хейвард і їде в його машині, в гараж, розташований в пляжному будиночку кандидата, де стріляє в нього. Через деякий час Хейвард намагається переконати лейтенанта Коломбо в тому, що метою вбивці був він сам, а Стоун був вбитий помилково. Щоб слідство пішло по помилковому сліду, кандидат в сенатори інсценує замах на самого себе.


Тривалість: 01:38:28
Якість: Remux 1080i
Відео:
кодек:
розмір кадру: 1920 х 1080
бітрейт: 26,8 Мб/с

Аудіо # 1:
мова: українська
переклад: багатоголосий закадровий | Так Треба Продакшн
кодек: 2.0
бітрейт: 192 кб/с

Аудіо # 2:
мова: англійська
переклад: оригінал
кодек: 2.0
бітрейт: 448 кб/с

Субтитри # 1: (Full)
мова: англійська
тип: програмні (м'які)
формат: *.srt

Субтитри # 2: (Full)
мова: англійська
тип: пререндерні
формат: *.pgs

Збережено оригінальні розділи, як на Blu-ray.
Info
General
Unique ID : 110116553774708795456440484086324410339 (0x52D7AD44A6080882D4B50130CF9437E3)
Complete name : F:\Columbo. Collection\Columbo. Season 3 (1973-1974) Remux 1080i UkrEng Sub Eng [Hurtom]\Columbo. S3E03 Candidate for Crime (1973) Remux 1080i UkrEng Sub Eng [Hurtom].
Format :
Format version : Version 4
File size : 18.9 GiB
Duration : 1 h 38 min
Overall bit rate mode : Variable
Overall bit rate : 27.5 Mb/s
Movie name : Коломбо. Сезон 3, Епізод 03 "Кандидат на вбивство" / Columbo. S3E03 "Candidate for Crime" (1973) Remux 1080i Ukr/Eng | Sub Eng [Hurtom]
Encoded date : UTC 2020-02-10 10:13:13
Writing application : v25.0.0 ('Prog Noir') 64-bit
Writing library : libebml v1.3.6 + v1.4.9
Cover : Yes
Attachments : cover.jpg

Video
ID : 1
Format : AVC
Format/Info : Advanced Video Codec
Format profile : [email protected]
Format settings : CABAC / 4 Ref Frames
Format settings, CABAC : Yes
Format settings, Reference : 4 frames
Codec ID : V_MPEG4/ISO/AVC
Duration : 1 h 38 min
Bit rate mode : Variable
Bit rate : 26.8 Mb/s
Maximum bit rate : 40.0 Mb/s
Width : 1 920 pixels
Height : 1 080 pixels
Display aspect ratio : 16:9
Frame rate mode : Constant
Frame rate : 29.970 (30000/1001) FPS
Color space : YUV
Chroma subsampling : 4:2:0
Bit depth : 8 bits
Scan type : MBAFF
Scan type, store method : Interleaved fields
Scan order : Top Field First
Bits/(Pixel*Frame) : 0.431
Stream size : 18.4 GiB (98%)
Title : Columbo. S3E03 "Candidate for Crime" (1973) Remux 1080i Ukr/Eng | Sub Eng [Hurtom by MakRa]
Language : Ukrainian
Default : Yes
Forced : Yes

Audio #1
ID : 2
Format : AC-3
Format/Info : Audio Coding 3
Commercial name : Dolby Digital
Codec ID : A_AC3
Duration : 1 h 38 min
Bit rate mode : Constant
Bit rate : 192 kb/s
Channel(s) : 2 channels
Channel layout : L R
Sampling rate : 48.0 kHz
Frame rate : 31.250 FPS (1536 SPF)
Compression mode : Lossy
Stream size : 135 MiB (1%)
Title : MVO [НТН] 2.0 | Студія "Так Треба Продакшн"
Language : Ukrainian
Service kind : Complete Main
Default : Yes
Forced : Yes

Audio #2
ID : 3
Format : AC-3
Format/Info : Audio Coding 3
Commercial name : Dolby Digital
Codec ID : A_AC3
Duration : 1 h 38 min
Bit rate mode : Constant
Bit rate : 448 kb/s
Channel(s) : 2 channels
Channel layout : L R
Sampling rate : 48.0 kHz
Frame rate : 31.250 FPS (1536 SPF)
Compression mode : Lossy
Stream size : 316 MiB (2%)
Title : Original 2.0
Language : English
Service kind : Complete Main
Default : No
Forced : No

Text #1
ID : 4
Format : UTF-8
Codec ID : S_TEXT/UTF8
Codec ID/Info : UTF-8 Plain Text
Duration : 1 h 37 min
Bit rate : 85 b/s
Count of elements : 1569
Stream size : 60.8 KiB (0%)
Title : Eng (Full) SRT
Language : English
Default : No
Forced : No

Text #2
ID : 5
Format : PGS
Muxing mode : zlib
Codec ID : S_HDMV/PGS
Codec ID/Info : Picture based subtitle format used on BDs/HD-DVDs
Duration : 1 h 37 min
Bit rate : 57.8 kb/s
Count of elements : 3138
Stream size : 40.4 MiB (0%)
Title : Eng (Full) PGS
Language : English
Default : No
Forced : No

Menu
00:00:00.000 : en:Chapter 1
00:00:31.698 : en:Chapter 2
00:15:01.767 : en:Chapter 3
00:26:31.323 : en:Chapter 4
00:34:57.361 : en:Chapter 5
00:51:18.008 : en:Chapter 6
00:55:32.062 : en:Chapter 7
00:59:28.731 : en:Chapter 8
01:02:36.018 : en:Chapter 9
01:06:51.207 : en:Chapter 10
01:21:03.992 : en:Chapter 11
01:24:28.096 : en:Chapter 12
01:31:04.992 : en:Chapter 13
01:37:55.870 : en:Chapter 14
Скріншоти
4. Подвійний вибух (Коломбо втрачає терпіння) / Double Exposure (16 грудня 1973)

Режисер: Річард Куайн [Richard Quine]
Сценарій: Стівен Дж. Кеннел [Stephen J. Cannell]
Актори: Пітер Фальк [Peter Michael Falk],Роберт Калп [Robert Martin Culp]

Сюжет:
Спеціаліст по мотиваційним дослідженням Барт Каппль є автором кількох успішних книг по темі підсвідомої реклами, яка укладається у вставці кадрів рекламованого продукту в кадри фильму. Незважаючи на успіх своєї справи, у вільний час чоловік займається шантажем, фотографуючи своїх одружених клієнтів разом з дівчиною (яку він сам же і найняв, щоб спокушати жертв). Остання жертва, Вик Норріс, відмовляється платити і загрожує викрити Каппль, після чого той вбиває його пострілом в серце, використовуючи в своєму злочині рекламний ролик. Лейтенант Коломбо підозрює доктора в убивстві, але вбивця майстерно заплутав сліди.


Тривалість: 01:13:37
Якість: Remux 1080i
Відео:
кодек:
розмір кадру: 1920 х 1080
бітрейт: 29,8 Мб/с

Аудіо # 1:
мова: українська
переклад: багатоголосий закадровий | Так Треба Продакшн
кодек: 2.0
бітрейт: 192 кб/с

Аудіо # 2:
мова: англійська
переклад: оригінал
кодек: 2.0
бітрейт: 448 кб/с

Субтитри # 1: (Full)
мова: англійська
тип: програмні (м'які)
формат: *.srt

Субтитри # 2: (Full)
мова: англійська
тип: пререндерні
формат: *.pgs

Збережено оригінальні розділи, як на Blu-ray.
Info
General
Unique ID : 73017067372935439340626771066226166514 (0x36EE935DD4926D8DD548DDD2C2174AF2)
Complete name : F:\Columbo. Collection\Columbo. Season 3 (1973-1974) Remux 1080i UkrEng Sub Eng [Hurtom]\Columbo. S3E04 Double Exposure (1973) Remux 1080i UkrEng Sub Eng [Hurtom].
Format :
Format version : Version 4
File size : 15.7 GiB
Duration : 1 h 13 min
Overall bit rate mode : Variable
Overall bit rate : 30.5 Mb/s
Movie name : Коломбо. Сезон 3, Епізод 04 "Подвійний вибух" (Коломбо втрачає терпіння) / Columbo. S3E04 "Double Exposure" (1973) Remux 1080i Ukr/Eng | Sub Eng [Hurtom]
Encoded date : UTC 2020-02-10 10:52:14
Writing application : v25.0.0 ('Prog Noir') 64-bit
Writing library : libebml v1.3.6 + v1.4.9
Cover : Yes
Attachments : cover.jpg

Video
ID : 1
Format : AVC
Format/Info : Advanced Video Codec
Format profile : [email protected]
Format settings : CABAC / 4 Ref Frames
Format settings, CABAC : Yes
Format settings, Reference : 4 frames
Codec ID : V_MPEG4/ISO/AVC
Duration : 1 h 13 min
Bit rate mode : Variable
Bit rate : 29.8 Mb/s
Maximum bit rate : 40.0 Mb/s
Width : 1 920 pixels
Height : 1 080 pixels
Display aspect ratio : 16:9
Frame rate mode : Constant
Frame rate : 29.970 (30000/1001) FPS
Color space : YUV
Chroma subsampling : 4:2:0
Bit depth : 8 bits
Scan type : MBAFF
Scan type, store method : Interleaved fields
Scan order : Top Field First
Bits/(Pixel*Frame) : 0.480
Stream size : 15.3 GiB (98%)
Title : Columbo. S3E04 "Double Exposure" (1973) Remux 1080i Ukr/Eng | Sub Eng [Hurtom by MakRa]
Language : Ukrainian
Default : Yes
Forced : Yes

Audio #1
ID : 2
Format : AC-3
Format/Info : Audio Coding 3
Commercial name : Dolby Digital
Codec ID : A_AC3
Duration : 1 h 13 min
Bit rate mode : Constant
Bit rate : 192 kb/s
Channel(s) : 2 channels
Channel layout : L R
Sampling rate : 48.0 kHz
Frame rate : 31.250 FPS (1536 SPF)
Compression mode : Lossy
Stream size : 101 MiB (1%)
Title : MVO [НТН] 2.0 | Студія "Так Треба Продакшн"
Language : Ukrainian
Service kind : Complete Main
Default : Yes
Forced : Yes

Audio #2
ID : 3
Format : AC-3
Format/Info : Audio Coding 3
Commercial name : Dolby Digital
Codec ID : A_AC3
Duration : 1 h 13 min
Bit rate mode : Constant
Bit rate : 448 kb/s
Channel(s) : 2 channels
Channel layout : L R
Sampling rate : 48.0 kHz
Frame rate : 31.250 FPS (1536 SPF)
Compression mode : Lossy
Stream size : 236 MiB (1%)
Title : Original 2.0
Language : English
Service kind : Complete Main
Default : No
Forced : No

Text #1
ID : 4
Format : UTF-8
Codec ID : S_TEXT/UTF8
Codec ID/Info : UTF-8 Plain Text
Duration : 1 h 12 min
Bit rate : 83 b/s
Count of elements : 1192
Stream size : 44.6 KiB (0%)
Title : Eng (Full) SRT
Language : English
Default : No
Forced : No

Text #2
ID : 5
Format : PGS
Muxing mode : zlib
Codec ID : S_HDMV/PGS
Codec ID/Info : Picture based subtitle format used on BDs/HD-DVDs
Duration : 1 h 12 min
Bit rate : 57.2 kb/s
Count of elements : 2384
Stream size : 29.7 MiB (0%)
Title : Eng (Full) PGS
Language : English
Default : No
Forced : No

Menu
00:00:00.000 : en:Chapter 1
00:00:26.359 : en:Chapter 2
00:13:38.517 : en:Chapter 3
00:21:50.776 : en:Chapter 4
00:29:14.085 : en:Chapter 5
00:38:45.323 : en:Chapter 6
00:44:52.189 : en:Chapter 7
00:54:49.152 : en:Chapter 8
00:59:48.318 : en:Chapter 9
01:07:23.639 : en:Chapter 10
01:13:03.979 : en:Chapter 11
Скріншоти
5. Публікуй або помирай (Роман без закінчення) / Publish or Perish (18 січня 1974)

Режисер: Роберт Батлер [Robert Butler]
Сценарій: Пітер С. Фішер [Peter Steven Fischer]
Актори: Пітер Фальк [Peter Michael Falk], Джек Кессіді [Jack Cassidy], Міккі Спіллейн [Frank Morrison Spillane], Маріетта Хартлі [Mariette Hartley], Джек Бендер [Jack Bender].

Сюжет:
Видавець Райлі Грінліф схвильований тим, що письменник Ален Меллорі не хоче продовжувати з ним контракт і вирішив видати свій новий бестселер у його конкурента. Райлі домовляється з Едді Кейном, ветераном війни у В'єтнамі і фахівцем щодо вибухів, про вбивство письменника. У той час як Грінліф напивається в прилеглому барі, Кейн йде в офіс Меллорі і вбиває його пострілом з револьвера. А через короткий час Грінліф вбиває Кейна, обставляючи все як нещасний випадок. Коломбо, який розслідує обидва вбивства, виявляє зв'язок між цими двома злочинами.


Тривалість: 01:14:24
Якість: Remux 1080i
Відео:
кодек:
розмір кадру: 1920 х 1080
бітрейт: 29,8 Мб/с

Аудіо # 1:
мова: українська
переклад: багатоголосий закадровий | Так Треба Продакшн
кодек: 2.0
бітрейт: 192 кб/с

Аудіо # 2:
мова: англійська
переклад: оригінал
кодек: 2.0
бітрейт: 448 кб/с

Субтитри # 1: (Full)
мова: англійська
тип: програмні (м'які)
формат: *.srt

Субтитри # 2: (Full)
мова: англійська
тип: пререндерні
формат: *.pgs

Збережено оригінальні розділи, як на Blu-ray.
Info
General
Unique ID : 43406015229544169741267417445451074769 (0x20A7B1C774CC64FCFF74D61AD6EE8CD1)
Complete name : F:\Columbo. Collection\Columbo. Season 3 (1973-1974) Remux 1080i UkrEng Sub Eng [Hurtom]\Columbo. S3E05 Publish or Perish (1974) Remux 1080i UkrEng Sub Eng [Hurtom].
Format :
Format version : Version 4
File size : 15.8 GiB
Duration : 1 h 14 min
Overall bit rate mode : Variable
Overall bit rate : 30.4 Mb/s
Movie name : Коломбо. Сезон 3, Епізод 05 "Публікуй або помирай" (Роман без закінчення) / Columbo. S3E05 "Publish or Perish" (1974) Remux 1080i Ukr/Eng | Sub Eng [Hurtom]
Encoded date : UTC 2020-02-10 22:46:36
Writing application : v25.0.0 ('Prog Noir') 64-bit
Writing library : libebml v1.3.6 + v1.4.9
Cover : Yes
Attachments : cover.jpg

Video
ID : 1
Format : AVC
Format/Info : Advanced Video Codec
Format profile : [email protected]
Format settings : CABAC / 4 Ref Frames
Format settings, CABAC : Yes
Format settings, Reference : 4 frames
Codec ID : V_MPEG4/ISO/AVC
Duration : 1 h 14 min
Bit rate mode : Variable
Bit rate : 29.8 Mb/s
Maximum bit rate : 40.0 Mb/s
Width : 1 920 pixels
Height : 1 080 pixels
Display aspect ratio : 16:9
Frame rate mode : Constant
Frame rate : 29.970 (30000/1001) FPS
Color space : YUV
Chroma subsampling : 4:2:0
Bit depth : 8 bits
Scan type : MBAFF
Scan type, store method : Interleaved fields
Scan order : Top Field First
Bits/(Pixel*Frame) : 0.479
Stream size : 15.5 GiB (98%)
Title : Columbo. S3E05 "Publish or Perish" (1974) Remux 1080i Ukr/Eng | Sub Eng [Hurtom by MakRa]
Language : Ukrainian
Default : Yes
Forced : Yes

Audio #1
ID : 2
Format : AC-3
Format/Info : Audio Coding 3
Commercial name : Dolby Digital
Codec ID : A_AC3
Duration : 1 h 14 min
Bit rate mode : Constant
Bit rate : 192 kb/s
Channel(s) : 2 channels
Channel layout : L R
Sampling rate : 48.0 kHz
Frame rate : 31.250 FPS (1536 SPF)
Compression mode : Lossy
Stream size : 102 MiB (1%)
Title : MVO [НТН] 2.0 | Студія "Так Треба Продакшн"
Language : Ukrainian
Service kind : Complete Main
Default : Yes
Forced : Yes

Audio #2
ID : 3
Format : AC-3
Format/Info : Audio Coding 3
Commercial name : Dolby Digital
Codec ID : A_AC3
Duration : 1 h 14 min
Bit rate mode : Constant
Bit rate : 448 kb/s
Channel(s) : 2 channels
Channel layout : L R
Sampling rate : 48.0 kHz
Frame rate : 31.250 FPS (1536 SPF)
Compression mode : Lossy
Stream size : 238 MiB (1%)
Title : Original 2.0
Language : English
Service kind : Complete Main
Default : No
Forced : No

Text #1
ID : 4
Format : UTF-8
Codec ID : S_TEXT/UTF8
Codec ID/Info : UTF-8 Plain Text
Duration : 1 h 13 min
Bit rate : 79 b/s
Count of elements : 1271
Stream size : 42.9 KiB (0%)
Title : Eng (Full) SRT
Language : Ukrainian
Default : No
Forced : No

Text #2
ID : 5
Format : PGS
Muxing mode : zlib
Codec ID : S_HDMV/PGS
Codec ID/Info : Picture based subtitle format used on BDs/HD-DVDs
Duration : 1 h 13 min
Bit rate : 54.7 kb/s
Count of elements : 2542
Stream size : 28.7 MiB (0%)
Title : Eng (Full) PGS
Language : English
Default : No
Forced : No

Menu
00:00:00.000 : en:Chapter 1
00:00:31.364 : en:Chapter 2
00:15:18.317 : en:Chapter 3
00:20:47.879 : en:Chapter 4
00:25:46.344 : en:Chapter 5
00:35:57.855 : en:Chapter 6
00:43:00.578 : en:Chapter 7
00:50:05.769 : en:Chapter 8
00:56:47.904 : en:Chapter 9
01:04:00.036 : en:Chapter 10
01:13:51.026 : en:Chapter 11
Скріншоти
6. Метушня (Стівен Спілберг поспішає на допомогу) / Mind Over Mayhem (10 лютого 1974)

Режисер: Альф Кжеллін [Alf Kjellin]
Сценарій: Стівен Бочко [Steven Bochco], Дін Харгроув [Dean Hargrove], Роланд Кіббі [Roland Kibbee], Роберт Шпехт [Robert Specht]
Актори: Пітер Фальк [Peter Michael Falk], Хосе Феррер [José Ferrer,], Лью Ейрс [Lew Ayres], Джессіка Волтер [Jessica Walter], Дідрі Холл [Deidre Hall].

Сюжет:
Молодий і скромний учений Ніл Кахілл зі своїм батьком Маршалом працює в НДІ кібернетики. Маршал Кахілл, який є главою інституту, вмовляє сина стати «людиною року», за те що він став автором абсолютно нового і ефективного винаходи. Але професор Говард Ніколсон впевнений, що ідея винаходу вкрадена у до того моменту померлого доктора Карла Финча і вимагає зізнатися в плагиате. Щоб захистити свого сина, Маршал Кахілл вбиває Финча, інсценуючи невдалу крадіжку зі зломом. Розслідуванням вбивства керує лейтенант Коломбо, і в цій заплутаній справі йому на допомогу приходить вундеркінд Стівен Спілберг.


Тривалість: 01:13:40
Якість: Remux 1080i
Відео:
кодек:
розмір кадру: 1920 х 1080
бітрейт: 29,8 Мб/с

Аудіо # 1:
мова: українська
переклад: багатоголосий закадровий | Так Треба Продакшн
кодек: 2.0
бітрейт: 192 кб/с

Аудіо # 2:
мова: англійська
переклад: оригінал
кодек: 2.0
бітрейт: 448 кб/с

Субтитри # 1: (Full)
мова: англійська
тип: програмні (м'які)
формат: *.srt

Субтитри # 2: (Full)
мова: англійська
тип: пререндерні
формат: *.pgs

Збережено оригінальні розділи, як на Blu-ray.
Info
General
Unique ID : 164277905679471368645161359289863076325 (0x7B96C6161D29A179AFD9066CE57379E5)
Complete name : F:\Columbo. Collection\Columbo. Season 3 (1973-1974) Remux 1080i UkrEng Sub Eng [Hurtom]\Columbo. S3E06 Mind Over Mayhem (1974) Remux 1080i UkrEng Sub Eng [Hurtom].
Format :
Format version : Version 4
File size : 15.7 GiB
Duration : 1 h 13 min
Overall bit rate mode : Variable
Overall bit rate : 30.5 Mb/s
Movie name : Коломбо. Сезон 3, Епізод 06 "Метушня" (Стівен Спілберг поспішає на допомогу) / Columbo. S3E06 "Mind Over Mayhem" (1974) Remux 1080i Ukr/Eng | Sub Eng [Hurtom]
Encoded date : UTC 2020-02-10 22:57:27
Writing application : v25.0.0 ('Prog Noir') 64-bit
Writing library : libebml v1.3.6 + v1.4.9
Cover : Yes
Attachments : cover.jpg

Video
ID : 1
Format : AVC
Format/Info : Advanced Video Codec
Format profile : [email protected]
Format settings : CABAC / 4 Ref Frames
Format settings, CABAC : Yes
Format settings, Reference : 4 frames
Codec ID : V_MPEG4/ISO/AVC
Duration : 1 h 13 min
Bit rate mode : Variable
Bit rate : 29.8 Mb/s
Maximum bit rate : 40.0 Mb/s
Width : 1 920 pixels
Height : 1 080 pixels
Display aspect ratio : 16:9
Frame rate mode : Constant
Frame rate : 29.970 (30000/1001) FPS
Color space : YUV
Chroma subsampling : 4:2:0
Bit depth : 8 bits
Scan type : MBAFF
Scan type, store method : Interleaved fields
Scan order : Top Field First
Bits/(Pixel*Frame) : 0.480
Stream size : 15.3 GiB (98%)
Title : Columbo. S3E06 "Mind Over Mayhem" (1974) Remux 1080i Ukr/Eng | Sub Eng [Hurtom by MakRa]
Language : Ukrainian
Default : Yes
Forced : Yes

Audio #1
ID : 2
Format : AC-3
Format/Info : Audio Coding 3
Commercial name : Dolby Digital
Codec ID : A_AC3
Duration : 1 h 13 min
Bit rate mode : Constant
Bit rate : 192 kb/s
Channel(s) : 2 channels
Channel layout : L R
Sampling rate : 48.0 kHz
Frame rate : 31.250 FPS (1536 SPF)
Compression mode : Lossy
Stream size : 101 MiB (1%)
Title : MVO [НТН] 2.0 | Студія "Так Треба Продакшн"
Language : Ukrainian
Service kind : Complete Main
Default : Yes
Forced : Yes

Audio #2
ID : 3
Format : AC-3
Format/Info : Audio Coding 3
Commercial name : Dolby Digital
Codec ID : A_AC3
Duration : 1 h 13 min
Bit rate mode : Constant
Bit rate : 448 kb/s
Channel(s) : 2 channels
Channel layout : L R
Sampling rate : 48.0 kHz
Frame rate : 31.250 FPS (1536 SPF)
Compression mode : Lossy
Stream size : 236 MiB (1%)
Title : Original 2.0
Language : English
Service kind : Complete Main
Default : No
Forced : No

Text #1
ID : 4
Format : UTF-8
Codec ID : S_TEXT/UTF8
Codec ID/Info : UTF-8 Plain Text
Duration : 1 h 12 min
Bit rate : 82 b/s
Count of elements : 1263
Stream size : 43.9 KiB (0%)
Title : Eng (Full) SRT
Language : English
Default : No
Forced : No

Text #2
ID : 5
Format : PGS
Muxing mode : zlib
Codec ID : S_HDMV/PGS
Codec ID/Info : Picture based subtitle format used on BDs/HD-DVDs
Duration : 1 h 12 min
Bit rate : 56.7 kb/s
Count of elements : 2526
Stream size : 29.4 MiB (0%)
Title : Eng (Full) PGS
Language : English
Default : No
Forced : No

Menu
00:00:00.000 : en:Chapter 1
00:00:29.029 : en:Chapter 2
00:17:02.721 : en:Chapter 3
00:27:31.983 : en:Chapter 4
00:33:45.490 : en:Chapter 5
00:43:50.027 : en:Chapter 6
00:49:30.233 : en:Chapter 7
00:54:20.991 : en:Chapter 8
01:00:42.505 : en:Chapter 9
01:05:17.313 : en:Chapter 10
01:13:06.315 : en:Chapter 11
Скріншоти
7. Лебедина пісня / Swan Song (3 березня 1974)

Режисер: Ніколас Коласанто [Nicholas Colasanto]
Сценарій: Девід Рейфіл [David Rayfiel], Стенлі Ральф Росс [Stanley Ralph Ross]
Актори: Пітер Фальк [Peter Michael Falk], Джонні Кеш [Johnny Cash], Айда Лупіно [Ida Lupino]

Сюжет:
Улюблений кантрі-співак місіс Коломбо Томмі Браун переживає непрості часи. Його дружина Една, затята послідовниця нового релігійного руху «Суспільство заблукалих душ», забирає у чоловіка великі гроші на будівництво нового храму. Вона шантажує Брауна його давньою зв'язком з неповнолітньою дівчиною, яка тепер знаходиться під її опікою. Під час рейсу в Лос-Анджелес на невеликому приватному літаку Томмі присипляє дружину і колишню коханку, а сам вистрибує з парашутом. Літак розбивається, жінки гинуть, а Браун обставляє крах літака як трагічну аварію. Брат Едни, Люк, вимагає, щоб Коломбо розслідував цей випадок як подвійне вбивство, в той же час FAA готове списати все на нещасний випадок.


Тривалість: 01:38:12
Якість: Remux 1080i
Відео:
кодек:
розмір кадру: 1920 х 1080
бітрейт: 29,8 Мб/с

Аудіо # 1:
мова: українська
переклад: багатоголосий закадровий | Так Треба Продакшн
кодек: 2.0
бітрейт: 192 кб/с

Аудіо # 2:
мова: англійська
переклад: оригінал
кодек: 2.0
бітрейт: 448 кб/с

Субтитри # 1: (Full)
мова: англійська
тип: програмні (м'які)
формат: *.srt

Субтитри # 2: (Full)
мова: англійська
тип: пререндерні
формат: *.pgs

Збережено оригінальні розділи, як на Blu-ray.
Info
General
Unique ID : 308090355264599718167064881154441709341 (0xE7C80B48B3CB827729241CA74119871D)
Complete name : F:\Columbo. Collection\Columbo. Season 3 (1973-1974) Remux 1080i UkrEng Sub Eng [Hurtom]\Columbo. S3E07 Swan Song (1974) Remux 1080i UkrEng Sub Eng [Hurtom].
Format :
Format version : Version 4
File size : 20.9 GiB
Duration : 1 h 38 min
Overall bit rate mode : Variable
Overall bit rate : 30.5 Mb/s
Movie name : Коломбо. Сезон 3, Епізод 07 "Лебедина пісня" / Columbo. S3E07 "Swan Song" (1974) Remux 1080i Ukr/Eng | Sub Eng [Hurtom]
Encoded date : UTC 2020-02-10 23:10:35
Writing application : v25.0.0 ('Prog Noir') 64-bit
Writing library : libebml v1.3.6 + v1.4.9
Cover : Yes
Attachments : cover.jpg

Video
ID : 1
Format : AVC
Format/Info : Advanced Video Codec
Format profile : [email protected]
Format settings : CABAC / 4 Ref Frames
Format settings, CABAC : Yes
Format settings, Reference fra : 4 frames
Codec ID : V_MPEG4/ISO/AVC
Duration : 1 h 38 min
Bit rate mode : Variable
Bit rate : 29.8 Mb/s
Maximum bit rate : 40.0 Mb/s
Width : 1 920 pixels
Height : 1 080 pixels
Display aspect ratio : 16:9
Frame rate mode : Constant
Frame rate : 29.970 (30000/1001) FPS
Color space : YUV
Chroma subsampling : 4:2:0
Bit depth : 8 bits
Scan type : MBAFF
Scan type, store method : Interleaved fields
Scan order : Top Field First
Bits/(Pixel*Frame) : 0.480
Stream size : 20.5 GiB (98%)
Title : Columbo. S3E07 "Swan Song" (1974) Remux 1080i Ukr/Eng | Sub Eng [Hurtom by MakRa]
Language : Ukrainian
Default : Yes
Forced : Yes

Audio #1
ID : 2
Format : AC-3
Format/Info : Audio Coding 3
Commercial name : Dolby Digital
Codec ID : A_AC3
Duration : 1 h 38 min
Bit rate mode : Constant
Bit rate : 192 kb/s
Channel(s) : 2 channels
Channel layout : L R
Sampling rate : 48.0 kHz
Frame rate : 31.250 FPS (1536 SPF)
Compression mode : Lossy
Stream size : 135 MiB (1%)
Title : MVO [НТН] 2.0 | Студія "Так Треба Продакшн"
Language : Ukrainian
Service kind : Complete Main
Default : Yes
Forced : Yes

Audio #2
ID : 3
Format : AC-3
Format/Info : Audio Coding 3
Commercial name : Dolby Digital
Codec ID : A_AC3
Duration : 1 h 38 min
Bit rate mode : Constant
Bit rate : 448 kb/s
Channel(s) : 2 channels
Channel layout : L R
Sampling rate : 48.0 kHz
Frame rate : 31.250 FPS (1536 SPF)
Compression mode : Lossy
Stream size : 315 MiB (1%)
Title : Original 2.0
Language : English
Service kind : Complete Main
Default : No
Forced : No

Text #1
ID : 4
Format : UTF-8
Codec ID : S_TEXT/UTF8
Codec ID/Info : UTF-8 Plain Text
Duration : 1 h 37 min
Bit rate : 75 b/s
Count of elements : 1598
Stream size : 53.8 KiB (0%)
Title : Eng (Full) SRT
Language : English
Default : No
Forced : No

Text #2
ID : 5
Format : PGS
Muxing mode : zlib
Codec ID : S_HDMV/PGS
Codec ID/Info : Picture based subtitle format used on BDs/HD-DVDs
Duration : 1 h 37 min
Bit rate : 51.5 kb/s
Count of elements : 3196
Stream size : 35.8 MiB (0%)
Title : Eng (Full) PGS
Language : English
Default : No
Forced : No

Menu
00:00:00.000 : en:Chapter 1
00:00:31.531 : en:Chapter 2
00:13:13.659 : en:Chapter 3
00:22:37.622 : en:Chapter 4
00:32:24.575 : en:Chapter 5
00:48:20.297 : en:Chapter 6
00:52:47.497 : en:Chapter 7
01:02:51.534 : en:Chapter 8
01:06:46.702 : en:Chapter 9
01:11:32.221 : en:Chapter 10
01:15:53.682 : en:Chapter 11
01:19:09.578 : en:Chapter 12
01:26:55.176 : en:Chapter 13
01:37:39.320 : en:Chapter 14
Скріншоти
8. Справжній друг / A Friend in Deed (5 травня 1974)

Режисер: Бен Газзара [Ben Gazzara]
Сценарій: Пітер С. Фішер [Peter Steven Fischer]
Актори: Пітер Фальк [Peter Michael Falk], Річард Кілі [Richard Dawson Kiel], Розмарі Мерфі [Rosemary Murphy], Джон Фіннеган [John Finnegan].

Сюжет:
Х'ю Колдуелл вбиває свою дружину. Він шукає допомоги у свого друга і сусіда, заступника комісара поліції Марка Гальперіна. Друг допомагає Колдуеллу, створюючи йому помилкове алібі і інсценуючи пограбування. Разом з лейтенантом Коломбо він починає розслідування, «підозрюючи» в злочині серійного грабіжника, який вже кілька тижнів обкрадає місцеві будинки. В районі починається паніка через грабіжника, «який вчинив своє перше вбивство». Насправді це частина хитромудрого плану Марка Гальперіна, що замислює вбивство власної дружини.


Тривалість: 01:38:19
Якість: Remux 1080i
Відео:
кодек:
розмір кадру: 1920 х 1080
бітрейт: 26,9 Мб/с

Аудіо # 1:
мова: українська
переклад: багатоголосий закадровий | Так Треба Продакшн
кодек: 2.0
бітрейт: 192 кб/с

Аудіо # 2:
мова: англійська
переклад: оригінал
кодек: 2.0
бітрейт: 448 кб/с

Субтитри # 1: (Full)
мова: англійська
тип: програмні (м'які)
формат: *.srt

Субтитри # 2: (Full)
мова: англійська
тип: пререндерні
формат: *.pgs

Збережено оригінальні розділи, як на Blu-ray.
Info
General
Unique ID : 74572201953878776711206875051477113625 (0x381A156BCD7588A3DD73902235EB1B19)
Complete name : F:\Columbo. Collection\Columbo. Season 3 (1973-1974) Remux 1080i UkrEng Sub Eng [Hurtom]\Columbo. S3E08 A Friend in Deed (1974) Remux 1080i UkrEng Sub Eng [Hurtom].
Format :
Format version : Version 4
File size : 18.9 GiB
Duration : 1 h 38 min
Overall bit rate mode : Variable
Overall bit rate : 27.5 Mb/s
Movie name : Коломбо. Сезон 3, Епізод 08 "Справжній друг" / Columbo. S3E08 "A Friend in Deed" (1974) Remux 1080i Ukr/Eng | Sub Eng [Hurtom]
Encoded date : UTC 2020-02-11 07:14:40
Writing application : v25.0.0 ('Prog Noir') 64-bit
Writing library : libebml v1.3.6 + v1.4.9
Cover : Yes
Attachments : cover.jpg

Video
ID : 1
Format : AVC
Format/Info : Advanced Video Codec
Format profile : [email protected]
Format settings : CABAC / 4 Ref Frames
Format settings, CABAC : Yes
Format settings, Reference fra : 4 frames
Codec ID : V_MPEG4/ISO/AVC
Duration : 1 h 38 min
Bit rate mode : Variable
Bit rate : 26.9 Mb/s
Maximum bit rate : 40.0 Mb/s
Width : 1 920 pixels
Height : 1 080 pixels
Display aspect ratio : 16:9
Frame rate mode : Constant
Frame rate : 29.970 (30000/1001) FPS
Color space : YUV
Chroma subsampling : 4:2:0
Bit depth : 8 bits
Scan type : MBAFF
Scan type, store method : Interleaved fields
Scan order : Top Field First
Bits/(Pixel*Frame) : 0.432
Stream size : 18.4 GiB (98%)
Title : Columbo. S3E08 "A Friend in Deed" (1974) Remux 1080i Ukr/Eng | Sub Eng [Hurtom by MakRa]
Language : Ukrainian
Default : Yes
Forced : Yes

Audio #1
ID : 2
Format : AC-3
Format/Info : Audio Coding 3
Commercial name : Dolby Digital
Codec ID : A_AC3
Duration : 1 h 38 min
Bit rate mode : Constant
Bit rate : 192 kb/s
Channel(s) : 2 channels
Channel layout : L R
Sampling rate : 48.0 kHz
Frame rate : 31.250 FPS (1536 SPF)
Compression mode : Lossy
Stream size : 135 MiB (1%)
Title : MVO [НТН] 2.0 | Студія "Так Треба Продакшн"
Language : Ukrainian
Service kind : Complete Main
Default : Yes
Forced : Yes

Audio #2
ID : 3
Format : AC-3
Format/Info : Audio Coding 3
Commercial name : Dolby Digital
Codec ID : A_AC3
Duration : 1 h 38 min
Bit rate mode : Constant
Bit rate : 448 kb/s
Channel(s) : 2 channels
Channel layout : L R
Sampling rate : 48.0 kHz
Frame rate : 31.250 FPS (1536 SPF)
Compression mode : Lossy
Stream size : 315 MiB (2%)
Title : Original 2.0
Language : English
Service kind : Complete Main
Default : No
Forced : No

Text #1
ID : 4
Format : UTF-8
Codec ID : S_TEXT/UTF8
Codec ID/Info : UTF-8 Plain Text
Duration : 1 h 37 min
Bit rate : 68 b/s
Count of elements : 1328
Stream size : 49.0 KiB (0%)
Title : Eng (Full) SRT
Language : English
Default : No
Forced : No

Text #2
ID : 5
Format : PGS
Muxing mode : zlib
Codec ID : S_HDMV/PGS
Codec ID/Info : Picture based subtitle format used on BDs/HD-DVDs
Duration : 1 h 37 min
Bit rate : 47.1 kb/s
Count of elements : 2656
Stream size : 32.8 MiB (0%)
Title : Eng (Full) PGS
Language : English
Default : No
Forced : No

Menu
00:00:00.000 : en:Chapter 1
00:00:32.032 : en:Chapter 2
00:15:51.617 : en:Chapter 3
00:20:29.528 : en:Chapter 4
00:34:52.590 : en:Chapter 5
00:38:59.003 : en:Chapter 6
00:44:48.519 : en:Chapter 7
00:54:58.962 : en:Chapter 8
01:00:59.722 : en:Chapter 9
01:07:52.234 : en:Chapter 10
01:13:32.508 : en:Chapter 11
01:24:23.324 : en:Chapter 12
01:30:01.095 : en:Chapter 13
01:37:45.993 : en:Chapter 14
Скріншоти
Джерело: &
Особиста оцінка: 10 - Шедевр, просто шедевр. Класика! Без зайвих вагань рекомендую всім! !






Золотий реліз (завантажене не впливає на рейтинг)
 Трекер:    Зареєстрований   

Завантажити / скачати серіал українською



відео для новачків



 Зареєстрований:   2020-02-24 13:17
 Розмір:   139.85 GB 
 Оцінка серіалу:   9.4/10 (Голосів: 14)
   
MakRA 
VIP


З нами з: 10.11.18
Востаннє: 03.12.20
Повідомлень: 1164

2020-02-24 13:19  
Нарешті виділив час на оформлення третього сезону найулюбленішого детективного телесеріалу Happy
Panther2214 
Попереджень: 1
Попереджень: 1 


З нами з: 29.09.17
Востаннє: 04.12.20
Повідомлень: 441

2020-03-17 13:59  
Дуже якісний детектив, любив переглядати час від часу, мабуть найкращий у своєму жанрі... От би у меншому форматі викладали, було б чудово... 13 сезонів трішки забагато, але частину можу взяти на роздачу, наприклад у форматі 720...
MakRA 
VIP


З нами з: 10.11.18
Востаннє: 03.12.20
Повідомлень: 1164

2020-03-17 14:11  
Panther2214
Так. Об"єм великий, та й мороки з ним багато, зараз часу катастрофічно не вистачає. Роблю як для себе) тому по максимуму. Блюреї лежать, ніяк не почну 4 сезон.
Сам серіал реально класика. Я з ним відпочиваю, фізично і морально.

Panther2214 
Попереджень: 1
Попереджень: 1 


З нами з: 29.09.17
Востаннє: 04.12.20
Повідомлень: 441

2020-03-17 14:45  
MakRA

Погоджуюсь, серіал у якості детектива найкращий у той час, але я здається почав дивитися з 95 - х років, тому не знаю, який сезон переглядав... Запам'ятав саме таку частину - де Коломбо розслідує вбивство, все проходить чудово та не сходиться думка з приводу мертвого тіла, тобто було ще гарячим після вбивства, час грав на руку вбивці... Доволі важко було довести вину, але все ж таки зумів вийти на слід злочинця і це мабуть єдиний епізод, де Коломбо сам запитав, як йому вдалось провернути таку майже ідеальну справу... На що той йому відповів: це була грілка у вигляді ковдри... Мені ця частина сподобалась найбільше...
Не по темі, напишіть яким плеєром переглядати ремукси??? Користуюcь Media Player Classic, все працює чудово, на ремуксах гальмує - такий побічний дефект цього плеєра, ніби бачиш розсинхрон...

leicheman 
Відео Гуртом - фільмокрай
Відео Гуртом - фільмокрай


З нами з: 03.07.14
Востаннє: 04.12.20
Повідомлень: 5707

2020-03-17 15:03  
Panther2214 написано:
такий побічний дефект цього плеєра, ніби бачиш розсинхрон...


Це не дефект плеєра.

1. Ваше залізо не тягне
2. Не правильно налаштовані, або взагалі відсутні відповідні кодеки..

Якщо не хочете паритися з налаштуваннями МРС то спробуйте VLC

MakRA 
VIP


З нами з: 10.11.18
Востаннє: 03.12.20
Повідомлень: 1164

2020-03-18 17:48  
Panther2214 написано:
ким плеєром переглядати ремукси

Дивлюся все через МРС. Якщо пригальмовує, то проблема в кодеках або залізові.
Інші плеєри підвисають, особливо коли з HDD де відеофайл, йде масова роздача.

Додано через 1 хвилину 17 секунд:

Ще CyberLink Power, але рідко використовую

Panther2214 
Попереджень: 1
Попереджень: 1 


З нами з: 29.09.17
Востаннє: 04.12.20
Повідомлень: 441

2020-03-18 22:11  
MakRA
На віндовсі 8.1 нічого не гальмувало, коли перестановили віндовс 10, гальмує саме ремукс, всі інші формати читає без проблем... Як налаштувати MPC, щоб були відповідні кодеки??? Про яке залізо йде мова, про ноут маєте на увазі??? Так мені цей плеєр подобається теж, звик до нього, допоможіть з налаштуванням...

MakRA 
VIP


З нами з: 10.11.18
Востаннє: 03.12.20
Повідомлень: 1164

2020-03-19 00:51  
Panther2214
Можна спробувати завантажити останню збірку кодеків. Можливо, після оновлення до десятки щось некоректно стало.
Якщо ноут, то банально може не вистачати оперативної пам"яті.
Загалом, всі кодеки майже завжди стають автоматично, дуже рідко лізу руцями, тим паче в 10 версії

Panther2214 
Попереджень: 1
Попереджень: 1 


З нами з: 29.09.17
Востаннє: 04.12.20
Повідомлень: 441

2020-03-19 12:29  
MakRA
Кодеки - це вони , VC - 1, так повинна виглядати збірка??? І ще одне, коли відкриті порти торрент програми, тобто стою на роздачі, ремукс гальмує, а коли виключаю - здається все добре працює, то не варто хвилюватися??? Чи проблема у ноуті, трішки заслабкий для віндовса 10??? Одні кажуть одне, другі по - іншому, вже й сам не знаю який віндовс тягне краще, більше подобався 8.1...

MakRA 
VIP


З нами з: 10.11.18
Востаннє: 03.12.20
Повідомлень: 1164

2020-03-21 19:20  
Panther2214
Так, ремукс гальмує через заслабкий ноут, в мене таке буває на одному HDD, коли з нього хочу подивитися і в той же час йде велика віддача в торрентах, хоча система доволі потужна

[Captain] 
Попереджень: 1
Попереджень: 1 


З нами з: 18.02.12
Востаннє: 29.11.20
Повідомлень: 2338

2020-05-06 11:47  
Круто. Дуже круто. Зробіть, будь ласка, усі сезони в такій якості. Давно планував подивитися, але почну лише коли буде все
MakRA 
VIP


З нами з: 10.11.18
Востаннє: 03.12.20
Повідомлень: 1164

2020-05-06 12:13  
[Captain]
Будуть всі сезони. Здійсню свою дитячу мрію... Але поступово, бо між релізерством ще доводиться працювати Happy

Ваш часовий пояс: GMT + 2 Години

Нова тема   Відповісти