Клуб "Сніданок" / The Breakfast Club (1985) [30th Anniversary Edition] 1080p H.265 2xUkr/Eng | Sub 2xUkr/Eng

Нові коментарі

Нова тема   Відповісти
Автор Повідомлення
Anonymous 







2020-02-23 23:22  
Клуб "Сніданок" / The Breakfast Club (1985) [30th Anniversary Edition] 1080p H.265 2xUkr/Eng | Sub 2xUkr/Eng

Клуб "Сніданок" / The Breakfast Club (1985) [30th Anniversary Edition] 1080p H.265 2xUkr/Eng | Sub 2xUkr/Eng


Жанр: комедія, драма
Країна: США
Кінокомпанія: Universal Studios
Режисер: Джон Х'юз / John Hughes
Актори: Еміліо Естевез (брат Чарлі Шина), Ентоні Майкл Холл, Джадд Нельсон, Моллі Рінгуолд, Еллі Шіді, Пол Глісон, Джон Капелос, Рон Дін, Тім Гембл, Мерседес Холл

Сюжет:
П'ятеро школярів в покарання за провини змушені прийти в школу у вихідний день - суботу і написати твір «Ким ви себе уявляєте?» Молодим людям з великими труднощами вдається розібратися у своїх проблемах.

Тривалість: 01:36:57
Якість: [30th Anniversary Edition]

Відео:
кодек: H.265 (HEVC)
розмір кадру: 1920 x 1040
бітрейт: 16 734 кб/с
бітова глибина: 10 біт

Увага! Перед завантаженням переконайтесь, що ваш пристрій відтворення (та/або ПЗ) підтримує H.265 (HEVC)

Аудіо # 1:
мова: українська
переклад: багатоголосий закадровий
кодек: AC-3 2.0
бітрейт: 192 кб/с

Аудіо # 2:
мова: українська
переклад: багатоголосий закадровий
кодек: AC-3 5.1
бітрейт: 448 кб/с

Аудіо # 3:
мова: англійська
переклад: оригінал
кодек: 5.1
бітрейт: 1510 кб/с

Аудіо # 4:
мова: англійська
переклад: оригінал | Commentary with Anthony Michael Hall & Judd Nelson
кодек: AC-3 2.0
бітрейт: 192 кб/с

Субтитри # 1-2: (Full from Netflix, Full from BD)
мова: українська
тип: програмні (м'які)
формат: *.srt

Субтитри # 3-6: (Full, SDH, SDH-Colored, Commentary with Anthony Michael Hall & Judd Nelson)
мова: англійська
тип: програмні (м'які)
формат: *.srt


Info
Код:
General
Unique ID                                : 11602089253039199040995974808682711682 (0x8BA7B2A16F7DD2CDFDBA0BB09C54A82)
Complete name                            : The Breakfast Club (1985) [30th Anniversary Edition] 1080p H.265 [2xUKR_ENG] [Hurtom].
Format                                   :
Format version                           : Version 4
File size                                : 12.9 GiB
Duration                                 : 1 h 37 min
Overall bit rate                         : 19.1 Mb/s
Movie name                               : Клуб "Сніданок" / The Breakfast Club (1985) [30th Anniversary Edition]
Encoded date                             : UTC 2020-10-17 21:29:08
Writing application                      : v20.0.0 ('I Am The Sun') 64-bit
Writing library                          : libebml v1.3.5 + v1.4.8
Cover                                    : Yes
Attachments                              : Cover.jpg

Video
ID                                       : 1
Format                                   : HEVC
Format/Info                              : High Efficiency Video Coding
Format profile                           : Main [email protected]@High
Codec ID                                 : V_MPEGH/ISO/HEVC
Duration                                 : 1 h 36 min
Bit rate                                 : 16.7 Mb/s
Width                                    : 1 920 pixels
Height                                   : 1 040 pixels
Display aspect ratio                     : 1.85:1
Frame rate mode                          : Constant
Frame rate                               : 23.976 (24000/1001) FPS
Color space                              : YUV
Chroma subsampling                       : 4:2:0
Bit depth                                : 10 bits
Bits/(Pixel*Frame)                       : 0.350
Stream size                              : 11.3 GiB (88%)
Title                                    : Клуб "Сніданок" / The Breakfast Club (1985) [30th Anniversary Edition]
Writing library                          : x265 3.2.1+3-b4b2ecac21f6:[Windows][MSVC 1924][64 bit] 10bit
Encoding settings                        : cpuid=1111039 / frame-threads=3 / numa-pools=12 / wpp / no-pmode / no-pme / no-psnr / no-ssim / log-level=2 / input-csp=1 / input-res=1920x1040 / interlace=0 / total-frames=139483 / level-idc=41 / high-tier=1 / uhd-bd=0 / ref=5 / no-allow-non-conformance / no-repeat-headers / annexb / no-aud / no-hrd / info / hash=0 / no-temporal-layers / open-gop / min-keyint=23 / keyint=240 / gop-lookahead=0 / bframes=16 / b-adapt=2 / b-pyramid / bframe-bias=0 / rc-lookahead=60 / lookahead-slices=0 / scenecut=40 / radl=0 / no-splice / no-intra-refresh / ctu=64 / min-cu-size=8 / rect / amp / max-tu-size=32 / tu-inter-depth=4 / tu-intra-depth=4 / limit-tu=1 / rdoq-level=2 / dynamic-rd=0.00 / no-ssim-rd / signhide / no-tskip / nr-intra=0 / nr-inter=0 / no-constrained-intra / no-strong-intra-smoothing / max-merge=5 / limit-refs=3 / no-limit-modes / me=3 / subme=7 / merange=57 / temporal-mvp / no-hme / weightp / weightb / no-analyze-src-pics / deblock=-3:-3 / no-sao / no-sao-non-deblock / rd=6 / selective-sao=0 / no-early-skip / rskip / no-fast-intra / no-tskip-fast / no-cu-lossless / b-intra / no-splitrd-skip / rdpenalty=0 / psy-rd=2.00 / psy-rdoq=1.00 / no-rd-refine / no-lossless / cbqpoffs=0 / crqpoffs=0 / rc=crf / crf=19.3 / qcomp=0.60 / qpstep=4 / stats-write=0 / stats-read=0 / vbv-maxrate=50000 / vbv-bufsize=50000 / vbv-init=0.9 / crf-max=0.0 / crf-min=0.0 / ipratio=1.40 / pbratio=1.30 / aq-mode=2 / aq-strength=1.00 / no-cutree / zone-count=1 / zones: / start-frame=136587 / end-frame=139464 / qp=36 / no-strict-cbr / qg-size=32 / no-rc-grain / qpmax=69 / qpmin=0 / no-const-vbv / sar=1 / overscan=0 / videoformat=5 / range=0 / colorprim=2 / transfer=2 / colormatrix=2 / chromaloc=0 / display-window=0 / cll=0,0 / min-luma=0 / max-luma=1023 / log2-max-poc-lsb=8 / vui-timing-info / vui-hrd-info / slices=1 / no-opt-qp-pps / no-opt-ref-list-length-pps / no-multi-pass-opt-rps / scenecut-bias=0.00 / no-opt-cu-delta-qp / no-aq-motion / no-hdr / no-hdr-opt / no-dhdr10-opt / no-idr-recovery-sei / analysis-reuse-level=5 / scale-factor=0 / refine-intra=0 / refine-inter=0 / refine-mv=1 / refine-ctu-distortion=0 / no-limit-sao / ctu-info=0 / no-lowpass-dct / refine-analysis-type=0 / copy-pic=1 / max-ausize-factor=1.0 / no-dynamic-refine / no-single-sei / no-hevc-aq / no-svt / no-field / qp-adaptation-range=1.00
Language                                 : English
Default                                  : Yes
Forced                                   : No

Audio #1
ID                                       : 2
Format                                   : AC-3
Format/Info                              : Audio Coding 3
Commercial name                          : Dolby Digital
Codec ID                                 : A_AC3
Duration                                 : 1 h 37 min
Bit rate mode                            : Constant
Bit rate                                 : 192 kb/s
Channel(s)                               : 2 channels
Channel layout                           : L R
Sampling rate                            : 48.0 kHz
Frame rate                               : 31.250 FPS (1536 SPF)
Compression mode                         : Lossy
Stream size                              : 133 MiB (1%)
Title                                    : / 2.0 Ch / 192 kbps / БЗ / Cine+
Language                                 : Ukrainian
Service kind                             : Complete Main
Default                                  : Yes
Forced                                   : Yes

Audio #2
ID                                       : 3
Format                                   : AC-3
Format/Info                              : Audio Coding 3
Commercial name                          : Dolby Digital
Codec ID                                 : A_AC3
Duration                                 : 1 h 37 min
Bit rate mode                            : Constant
Bit rate                                 : 448 kb/s
Channel(s)                               : 6 channels
Channel layout                           : L R C LFE Ls Rs
Sampling rate                            : 48.0 kHz
Frame rate                               : 31.250 FPS (1536 SPF)
Compression mode                         : Lossy
Delay relative to video                  : 31 ms
Stream size                              : 311 MiB (2%)
Title                                    : / 5.1 Ch / 448 kbps / БЗ / ICTV
Language                                 : Ukrainian
Service kind                             : Complete Main
Default                                  : No
Forced                                   : No

Audio #3
ID                                       : 4
Format                                   :
Format/Info                              : Digital Theater Systems
Codec ID                                 : A_DTS
Duration                                 : 1 h 36 min
Bit rate mode                            : Constant
Bit rate                                 : 1 509 kb/s
Channel(s)                               : 6 channels
Channel layout                           : C L R Ls Rs LFE
Sampling rate                            : 48.0 kHz
Frame rate                               : 93.750 FPS (512 SPF)
Bit depth                                : 24 bits
Compression mode                         : Lossy
Stream size                              : 1.02 GiB (8%)
Title                                    : / 5.1 Ch / 1509 kbps / Original
Language                                 : English
Default                                  : No
Forced                                   : No

Audio #4
ID                                       : 5
Format                                   : AC-3
Format/Info                              : Audio Coding 3
Commercial name                          : Dolby Digital
Codec ID                                 : A_AC3
Duration                                 : 1 h 36 min
Bit rate mode                            : Constant
Bit rate                                 : 192 kb/s
Channel(s)                               : 2 channels
Channel layout                           : L R
Sampling rate                            : 48.0 kHz
Frame rate                               : 31.250 FPS (1536 SPF)
Compression mode                         : Lossy
Stream size                              : 133 MiB (1%)
Title                                    : / 2.0 Ch / 192 kbps / Original / Commentary with Anthony Michael Hall & Judd Nelson
Language                                 : English
Service kind                             : Complete Main
Default                                  : No
Forced                                   : No

Text #1
ID                                       : 6
Format                                   : UTF-8
Codec ID                                 : S_TEXT/UTF8
Codec ID/Info                            : UTF-8 Plain Text
Duration                                 : 1 h 36 min
Bit rate                                 : 111 b/s
Count of elements                        : 1197
Stream size                              : 78.5 KiB (0%)
Title                                    : Full from Netflix
Language                                 : Ukrainian
Default                                  : No
Forced                                   : No

Text #2
ID                                       : 7
Format                                   : UTF-8
Codec ID                                 : S_TEXT/UTF8
Codec ID/Info                            : UTF-8 Plain Text
Duration                                 : 1 h 36 min
Bit rate                                 : 96 b/s
Count of elements                        : 1200
Stream size                              : 68.0 KiB (0%)
Title                                    : Full from BD
Language                                 : Ukrainian
Default                                  : No
Forced                                   : No

Text #3
ID                                       : 8
Format                                   : UTF-8
Codec ID                                 : S_TEXT/UTF8
Codec ID/Info                            : UTF-8 Plain Text
Duration                                 : 1 h 36 min
Bit rate                                 : 63 b/s
Count of elements                        : 1312
Stream size                              : 44.7 KiB (0%)
Title                                    : Full
Language                                 : English
Default                                  : No
Forced                                   : No

Text #4
ID                                       : 9
Format                                   : UTF-8
Codec ID                                 : S_TEXT/UTF8
Codec ID/Info                            : UTF-8 Plain Text
Duration                                 : 1 h 36 min
Bit rate                                 : 65 b/s
Count of elements                        : 1377
Stream size                              : 46.1 KiB (0%)
Title                                    : SDH
Language                                 : English
Default                                  : No
Forced                                   : No

Text #5
ID                                       : 10
Format                                   : UTF-8
Codec ID                                 : S_TEXT/UTF8
Codec ID/Info                            : UTF-8 Plain Text
Duration                                 : 1 h 36 min
Bit rate                                 : 70 b/s
Count of elements                        : 1377
Stream size                              : 49.9 KiB (0%)
Title                                    : SDH-Colored
Language                                 : English
Default                                  : No
Forced                                   : No

Text #6
ID                                       : 11
Format                                   : UTF-8
Codec ID                                 : S_TEXT/UTF8
Codec ID/Info                            : UTF-8 Plain Text
Duration                                 : 1 h 36 min
Bit rate                                 : 138 b/s
Count of elements                        : 1839
Stream size                              : 97.9 KiB (0%)
Title                                    : Commentary with Anthony Michael Hall & Judd Nelson
Language                                 : English
Default                                  : No
Forced                                   : No

Menu
00:00:00.000                             : en:Main Titles
00:02:05.291                             : en:A Saturday in Detention
00:05:48.848                             : en:Who Do You Think You Are?
00:15:26.300                             : en:Monkey Business
00:21:06.515                             : en:Passing  the Time
00:22:57.793                             : en:Parents
00:30:15.814                             : en:The Custodial Artist
00:31:39.439                             : en:Personal Business
00:37:04.931                             : en:Lunchtime
00:43:20.306                             : en:Being Bad Feels Pretty Good
00:50:00.455                             : en:A Man of Respect
00:51:45.143                             : en:A Ruckus
00:55:43.673                             : en:Blazing Up
00:58:01.603                             : en:Highly Sensitive Areas
01:06:34.532                             : en:Group Therapy
01:26:12.917                             : en:We Are Not Alone
01:32:12.235                             : en:Sincerely Yours, the Breakfast Club
01:34:56.148                             : en:End Titles
Світлини




Джерело: &
Особиста оцінка: 0 - не дивився

Подяка пану leicheman за надані укр. субтитри.


Срібний реліз (на рейтинг впливає 50% завантаженого)
 Трекер:    Зареєстрований   

Завантажити / скачати фільм українською



відео для новачків



 Зареєстрований:   2020-10-17 23:44
 Розмір:   12.92 GB 
 Оцінка фільму:   8.8/10 (Голосів: 13)
   
Інші релізи
Jatx_11 
Відео Гуртом - фільмокрай
Відео Гуртом - фільмокрай


З нами з: 20.04.11
Востаннє: 27.10.20
Повідомлень: 950

2020-10-16 19:09  
На БлюРей вийшли українські субтитри.
Anonymous 







2020-10-16 19:20  
Jatx_11
поділитеся?

Jatx_11 
Відео Гуртом - фільмокрай
Відео Гуртом - фільмокрай


З нами з: 20.04.11
Востаннє: 27.10.20
Повідомлень: 950

2020-10-16 19:58  
Це просто інфа.
Electroz 
Відео Гуртом - підтримка та поширення
Відео Гуртом - підтримка та поширення


З нами з: 18.09.14
Востаннє: 30.10.20
Повідомлень: 4155

2020-10-16 20:40  
Anonymous написано:
The Breakfast Club (1985)

На кінозалі виклали блюр.

Anonymous 







2020-10-17 22:54  
- Додано укр. саби;
- додано оригінальні саби по-максимуму;
- додано коментарі;
- оновлено постер;
- якісніша оригінальна доріжка.

leicheman 
Відео Гуртом - фільмокрай
Відео Гуртом - фільмокрай


З нами з: 03.07.14
Востаннє: 30.10.20
Повідомлень: 5564

2020-10-17 23:23  
Є ще з нетфлікс субтитри (можуть бути ідентичні до блюрей)
Anonymous 







2020-10-17 23:44  
- додано саби з Netflix.
Akio Furukawa 
Свій


З нами з: 02.11.19
Востаннє: 29.10.20
Повідомлень: 132

2020-10-28 23:23  
1,5 години банальної нудної балаканини діточок-переростків приправленої шмарклями наприкінці. Даруйте, проте існує безліч набагато ґрунтовніших, глибших, змістовніших, повніших і подекуди навіть дотепніших фільмів, присвячених підлітковим проблемам. Рейтинг явно завищений, незрозуміло лише ким і задля чого. Бо тут нема на що гаяти свій час.
2/10
Anonymous написано:
- додано саби з Netflix

Аби запротоколювати всю ту маячню? Вибач, але я ніколи не перекачую файли заради подібної фігні. Навіть якщо там жалюгідний гіг, але ж тут їх усі 13. Мені шкода мого HDD.
leicheman написано:
з нетфлікс

Ще й із тієї помийниці, прости г-споди >_<

Ваш часовий пояс: GMT + 2 Години

Нова тема   Відповісти