Ті, що слідують / Them That Follow (2019) AVC Ukr/Eng | Sub Ukr

Нові коментарі

Нова тема   Відповісти
Автор Повідомлення
ArtymKo 
Новенький


З нами з: 14.01.20
Востаннє: 12.07.20
Повідомлень: 21

2020-02-23 15:12  
Ті, що слідують / Them That Follow (2019) AVC Ukr/Eng | Sub Ukr

Ті, що слідують / Them That Follow (2019) AVC Ukr/Eng | Sub Ukr


Жанр: трилер
Країна: США



Кінокомпанія: Amasia Entertainment, G-BASE
Режисер: Брітт Полтон (Britt Poulton), Ден Медісон Севедж (Dan Madison Savage)
Актори: Аліс Енглерт (Alice Englert), Олівія Колман (Olivia Colman), Волтон Ґоґґінс (Walton Goggins), Кейтлін Дівер (Kaitlyn Dever), Джім Ґаффіґан (Jim Gaffigan), Томас Манн (Thomas Mann), Льюїс Пуллман (Lewis Pullman), Бредлі Ґалло (Bradley Gallo) та інші.

Сюжет:
У глибині Аппалачів заборонені відносини змушують доньку пастора протистояти смертельній традиції її громади.

Трейлер


Вікова категорія: 16+

Тривалість: 01:37:59
Якість: AVC
Відео:
кодек:
розмір кадру: 1024 x 432
бітрейт: 1905 кб/с

Аудіо #1:
мова: українська
переклад: багатоголосий закадровий (ArtymKo)
кодек: 5.1
бітрейт: 448 кб/с

Аудіо #2:
мова: англійська
переклад: оригінал
кодек: 5.1
бітрейт: 448 кб/с

Субтитри #1:
мова: українська (написи)
тип: програмні (м'які)
формат: *.

Субтитри #2:
мова: українська (повні)
тип: програмні (м'які)
формат: *.
Info
General
Unique ID : 311351611834659685457953492428082277936 (0xEA3C23A5A99E4CA4C5B0D0D846826E30)
Complete name : E:\films\Them That Follow (2019) AVC 1080 [Ukr, Eng] [Artymko].
Format :
Format version : Version 4 / Version 2
File size : 1.92 GiB
Duration : 1h 38mn
Overall bit rate : 2 801 Kbps
Movie name : Ті, що слідують (2019) [ArtymKo]
Encoded date : UTC 2020-02-23 15:06:40
Writing application : v32.0.0 ('Astral Progressions') 64-bit
Writing library : libebml v1.3.7 + v1.5.0
Cover : Yes
DURATION : 01:31:47.300000000
NUMBER_OF_FRAMES : 760
NUMBER_OF_BYTES : 50239
_STATISTICS_WRITING_APP : v32.0.0 ('Astral Progressions') 64-bit
_STATISTICS_WRITING_DATE_UTC : 2020-02-23 15:06:40
_STATISTICS_TAGS : BPS DURATION NUMBER_OF_FRAMES NUMBER_OF_BYTES

Video
ID : 1
Format : AVC
Format/Info : Advanced Video Codec
Format profile : [email protected]
Format settings, CABAC : Yes
Format settings, ReFrames : 11 frames
Codec ID : V_MPEG4/ISO/AVC
Duration : 1h 38mn
Bit rate : 1 905 Kbps
Width : 1 024 pixels
Height : 432 pixels
Display aspect ratio : 2.40:1
Frame rate mode : Constant
Frame rate : 23.976 fps
Color space : YUV
Chroma subsampling : 4:2:0
Bit depth : 8 bits
Scan type : Progressive
Bits/(Pixel*Frame) : 0.180
Stream size : 1.27 GiB (66%)
Writing library : core 148 r2638 7599210
Encoding settings : cabac=1 / ref=11 / deblock=1:2:2 / analyse=0x3:0x113 / me=umh / subme=10 / psy=1 / psy_rd=1.00:0.15 / mixed_ref=1 / me_range=48 / chroma_me=1 / trellis=2 / 8x8dct=1 / cqm=0 / deadzone=21,11 / fast_pskip=1 / chroma_qp_offset=3 / threads=6 / lookahead_threads=1 / sliced_threads=0 / nr=0 / decimate=1 / interlaced=0 / bluray_compat=0 / constrained_intra=0 / bframes=3 / b_pyramid=2 / b_adapt=2 / b_bias=0 / direct=3 / weightb=1 / open_gop=0 / weightp=2 / keyint=240 / keyint_min=23 / scenecut=40 / intra_refresh=0 / rc_lookahead=40 / rc=2pass / mbtree=1 / bitrate=1905 / ratetol=1.0 / qcomp=0.60 / qpmin=0 / qpmax=69 / qpstep=4 / cplxblur=20.0 / qblur=0.5 / vbv_maxrate=50000 / vbv_bufsize=62500 / nal_hrd=none / filler=0 / ip_ratio=1.40 / aq=1:1.00
Default : Yes
Forced : No

Audio #1
ID : 2
Format : AC-3
Format/Info : Audio Coding 3
Mode extension : CM (complete main)
Format settings, Endianness : Big
Codec ID : A_AC3
Duration : 1h 38mn
Bit rate mode : Constant
Bit rate : 448 Kbps
Channel(s) : 6 channels
Channel positions : Front: L C R, Side: L R, LFE
Sampling rate : 48.0 KHz
Bit depth : 16 bits
Compression mode : Lossy
Stream size : 314 MiB (16%)
Title : Artymko, Bitari, Crupt, Lomaev, Reniko
Language : Ukrainian
Default : Yes
Forced : Yes

Audio #2
ID : 3
Format : AC-3
Format/Info : Audio Coding 3
Mode extension : CM (complete main)
Format settings, Endianness : Big
Codec ID : A_AC3
Duration : 1h 38mn
Bit rate mode : Constant
Bit rate : 448 Kbps
Channel(s) : 6 channels
Channel positions : Front: L C R, Side: L R, LFE
Sampling rate : 48.0 KHz
Bit depth : 16 bits
Compression mode : Lossy
Stream size : 314 MiB (16%)
Title : Оригінал
Language : English
Default : No
Forced : No

Text #1
ID : 4
Format :
Codec ID : S_TEXT/
Codec ID/Info : Advanced Sub Station Alpha
Compression mode : Lossless
Title : Написи (Володимир Фатун, Mormor)
Language : Ukrainian
Default : Yes
Forced : Yes

Text #2
ID : 5
Format :
Codec ID : S_TEXT/
Codec ID/Info : Advanced Sub Station Alpha
Compression mode : Lossless
Title : Повні (Володимир Фатун, Mormor)
Language : Ukrainian
Default : No
Forced : No
Скріншоти



Реліз: Команда озвучення «ArtymKo»
Переклад: Володимир Фатун
Редакція: Mormor
Ролі озвучували: Artymko, Bitari (AniUA), Crupt (FanVox UA), Lomaev (MelodicVoiceStudio), Reniko (Clan Kaizoku)
Таймінг звуку: KohinSan
Робота зі звуком: Electroz
Подяка Vasyl T за допомогу з релізом.
Підтримати команду можна за посиланням на цій сторінці. Не забудьте вказати назву проєкту (наприклад, «Ті, що слідують») і, за бажання, своє ім'я або нік.
________________
Замовити озвучення
Наші роботи
Telegram


Авторський реліз (завантажувати можна без реєстрації)
 Трекер:    Зареєстрований   

Завантажити / скачати фільм українською



відео для новачків



 Зареєстрований:   2020-02-23 18:28
 Розмір:   1.92 GB 
 Оцінка фільму:   7.4/10 (Голосів: 21)
   
11FrYkT 
Модератор відео


З нами з: 20.02.11
Востаннє: 15.07.20
Повідомлень: 6953

2020-02-23 15:15  
ArtymKo написано:
кодек:

ArtymKo написано:
[Ukr, Eng] [Artymko].

таке співвідношення заборонене, замініть відео

bot 
робот


З нами з: 30.09.07
Востаннє: 26.05.05
Повідомлень: 25064

2020-02-23 19:53  
Тему перенесено з Телесеріали до форуму Фільми


11FrYkT

ossubemabebe 
Новенький


З нами з: 24.11.12
Востаннє: 14.07.20
Повідомлень: 3

2020-02-23 19:57  
Добрий вечір,фільм вартий перегляду?
jajcebum 
Частий відвідувач


З нами з: 08.01.17
Востаннє: 10.07.20
Повідомлень: 26

2020-02-24 15:56  
Опис сюжету занадто вичерпний, скоротіть його Happy
Ірка-Шкірка 
Свій


З нами з: 08.01.11
Востаннє: 12.07.20
Повідомлень: 136

2020-02-24 16:02  
Такий довгий опис сюжету https://en.wikipedia.org/wiki/Them_That_Follow вмістити в два незрозумілі рядки...
GlossaVK 
Свій


З нами з: 26.06.13
Востаннє: 14.07.20
Повідомлень: 74

2020-02-26 20:56  
Досить цікавий фільм. Вартий перегляду.
phobosss 
Новенький


З нами з: 05.06.13
Востаннє: 14.07.20
Повідомлень: 2

2020-02-27 22:08  
Автору,подяка за працю. фільм повне лайно
Sllavko 
Поважний учасник


З нами з: 10.06.12
Востаннє: 14.07.20
Повідомлень: 204

2020-02-28 23:08  
phobosss написано:
Автору,подяка за працю. фільм повне лайно

гггг.. мабуть, нейчемніший комент щодо фільму на толоці)))

Ваш часовий пояс: GMT + 2 Години

Нова тема   Відповісти