Шоколад / Chocolat (2016) 720p Ukr/Fre | Sub Fre

Нові коментарі

Нова тема   Відповісти
Автор Повідомлення
Anonymous 







2020-02-22 23:08  
Шоколад / Chocolat (2016) 720p Ukr/Fre | Sub Fre

Шоколад / Chocolat (2016) 720p Ukr/Fre | Sub Fre


Жанр: драма
Країна: Франція



Кінокомпанія: Buenavista Films, Canal+ [fr], Centre National de la Cinématographie (CNC), Ciné
Режисер: Рошді Зем
Актори: Омар Сі, Джеймс Тьєррє, Клотільда Ем, Олів'є Гурме, Фредерік П'єро, Ноемі Львівські, Еліс де Ланкесе, Алекс Дека, Олів'є Рабурден, Тібо де Монталембер

Сюжет:
Це історія першого у Франції чорношкірого клоуна, який виступав в тандемі з білим клоуном. Їх номери були надзвичайно популярні в кінці XIX століття, але інтерес до них був затребуваний переважно через те, що білий клоун знущався над чорношкірим.


Тривалість: 01:59:05
Якість: 720p
Відео:
кодек:
розмір кадру: 1280x692
бітрейт: 6 541 кб/с

Аудіо # 1:
мова: українська
переклад: багатоголосий закадровий
кодек: 2.0
бітрейт: 192 кб/с

Аудіо # 2:
мова: французька
переклад: оригінал
кодек: 5.1
бітрейт: 640 кб/с

Субтитри:
мова: французька
тип: програмні (м'які)
формат: *.srt
Info
General
Unique ID : 201744133997504152887866546979834592878 (0x97C681C2B15B94BC8A95C233FCB67E6E)
Complete name : H:\Toloka\2020\Chocolat (2016) 720p.
Format :
Format version : Version 4
File size : 6.26 GiB
Duration : 1 h 59 min
Overall bit rate : 7 523 kb/s
Encoded date : UTC 2020-02-22 20:04:26
Writing application : v6.1.0 ('Old Devil') built on Mar 4 2013 09:10:42
Writing library : libebml v1.3.0 + v1.4.0

Video
ID : 1
Format : AVC
Format/Info : Advanced Video Codec
Format profile : [email protected]
Format settings : CABAC / 9 Ref Frames
Format settings, CABAC : Yes
Format settings, RefFrames : 9 frames
Codec ID : V_MPEG4/ISO/AVC
Duration : 1 h 59 min
Bit rate : 6 541 kb/s
Width : 1 280 pixels
Height : 692 pixels
Display aspect ratio : 1.85:1
Frame rate mode : Constant
Frame rate : 24.000 FPS
Color space : YUV
Chroma subsampling : 4:2:0
Bit depth : 8 bits
Scan type : Progressive
Bits/(Pixel*Frame) : 0.308
Stream size : 5.44 GiB (87%)
Title : French
Writing library : core 148 r2692.11 7386685 VietHD_Custom_64
Encoding settings : cabac=1 / ref=9 / deblock=1:-3:-3 / analyse=0x3:0x133 / me=umh / subme=10 / psy=1 / fade_compensate=0.00 / psy_rd=1.06:0.00 / mixed_ref=1 / me_range=24 / chroma_me=1 / trellis=2 / 8x8dct=1 / cqm=0 / deadzone=21,11 / fast_pskip=0 / chroma_qp_offset=-2 / threads=12 / lookahead_threads=2 / sliced_threads=0 / nr=0 / decimate=0 / interlaced=0 / bluray_compat=0 / constrained_intra=0 / fgo=0 / bframes=7 / b_pyramid=2 / b_adapt=2 / b_bias=0 / direct=3 / weightb=1 / open_gop=0 / weightp=2 / keyint=250 / keyint_min=24 / scenecut=40 / intra_refresh=0 / rc_lookahead=60 / rc=crf / mbtree=0 / crf=16.5000 / qcomp=0.67 / qpmin=0:0:0 / qpmax=69:69:69 / qpstep=4 / vbv_maxrate=62500 / vbv_bufsize=78125 / crf_max=0.0 / nal_hrd=none / filler=0 / ip_ratio=1.30 / pb_ratio=1.20 / aq=3:0.76 / aq-sensitivity=10.00 / aq-factor=1.00:1.00:1.00 / aq2=0 / aq3=0
Language : French
Default : Yes
Forced : No
Color range : Limited
Matrix coefficients : BT.709

Audio #1
ID : 2
Format : AC-3
Format/Info : Audio Coding 3
Commercial name : Dolby Digital
Codec ID : A_AC3
Duration : 1 h 59 min
Bit rate mode : Constant
Bit rate : 192 kb/s
Channel(s) : 2 channels
Channel layout : L R
Sampling rate : 48.0 kHz
Frame rate : 31.250 FPS (1536 SPF)
Bit depth : 16 bits
Compression mode : Lossy
Stream size : 164 MiB (3%)
Title : UKR (K1)
Language : Ukrainian
Service kind : Complete Main
Default : Yes
Forced : Yes

Audio #2
ID : 3
Format : AC-3
Format/Info : Audio Coding 3
Commercial name : Dolby Digital
Codec ID : A_AC3
Duration : 1 h 59 min
Bit rate mode : Constant
Bit rate : 640 kb/s
Channel(s) : 6 channels
Channel layout : L R C LFE Ls Rs
Sampling rate : 48.0 kHz
Frame rate : 31.250 FPS (1536 SPF)
Bit depth : 16 bits
Compression mode : Lossy
Stream size : 545 MiB (9%)
Title : Fre
Language : French
Service kind : Complete Main
Default : No
Forced : No

Text
ID : 4
Format : UTF-8
Codec ID : S_TEXT/UTF8
Codec ID/Info : UTF-8 Plain Text
Title : Fre
Language : French
Default : No
Forced : No

Menu
00:00:00.000 : en:00:00:00.000
00:14:48.667 : en:00:14:48.667
00:29:34.500 : en:00:29:34.500
00:45:52.208 : en:00:45:52.208
00:59:31.083 : en:00:59:31.083
01:14:59.667 : en:01:14:59.667
01:30:02.292 : en:01:30:02.292
01:44:37.833 : en:01:44:37.833
Скріншоти








За запис звуку з ТБ дякуємо пану Krigg070
Особиста подяка пану denixx за надану матеріальну допомогу на підтримку цього і майбутніх релізів.

Джерело:


 Трекер:    Зареєстрований   

Завантажити / скачати фільм українською



відео для новачків



 Зареєстрований:   2020-02-22 23:08
 Розмір:   6.26 GB 
 Оцінка фільму:   10/10 (Голосів: 6)
   
taksist 
VIP


З нами з: 10.12.12
Востаннє: 23.09.20
Повідомлень: 412

2020-02-23 00:31  
95 квартал, що знущається над українцями.
нічого нового.

Ваш часовий пояс: GMT + 2 Години

Нова тема   Відповісти