Американський пиріг 4: Музичний табір / American Pie Presents Band Camp (2005) 1080p Ukr/Eng | Sub Eng

Нові коментарі

Нова тема   Відповісти
Останній раз роздавалося coltojkee (2020-09-21)
Автор Повідомлення
Anonymous 







2020-02-22 19:50  
Американський пиріг 4: Музичний табір / American Pie Presents Band Camp (2005) 1080p Ukr/Eng | Sub Eng

Американський пиріг 4: Музичний табір / American Pie Presents Band Camp (2005) 1080p Ukr/Eng | Sub Eng


Жанр: комедія
Країна: США



Кінокомпанія: Capital Arts Entertainment, Rogue Pictures, Universal Pictures
Режисер: Стів Раш
Актори: Юджин Леві, Тед Хідженбрінг, Аріель Кабел, Джейсон Ерлс, Крістл Лайтінг, Джан Хі Лі та ін.

Сюжет:
В епізоді "Американський пиріг" представляє "Музичний табір" молодший брат Стіфлера Мет "приречений" на літні канікули в таборі, де він влаштовує масу приколів з допомогою прихованих камер та інших прибамбасів.
Ця поведінка стає зовсім знахабнілою, після дружби з "членом банди" на ім'я Елайз. Батько Джимі знов проявляє себе в ролі мудрого наставника, який намагається допомогти молодшому брату Стіфлера повернутись на правильний шлях.


Тривалість: 01:34:14
Якість: 1080p
Відео:
кодек:
розмір кадру: 1920х1080
бітрейт: 13.4 Mб/с

Аудіо # 1:
мова: українська
переклад: багатоголосий закадровий ,
кодек: 2.0
бітрейт: 192 кб/с
Примітка: є декілька місць без перекладу

Аудіо # 2:
мова: англійська
переклад: оригінал
кодек: 5.1
бітрейт: 1509 кб/с

Субтитри:
мова: англійська
тип: програмні (м'які)
формат: *.srt
Info
General
Unique ID : 251611049920031989746870883449836724567 (0xBD4A8689A80A7C7AB9692FE184D0E157)
Complete name : H:\Toloka\2020\American Pie Presents Band Camp (2005) 1080p.
Format :
Format version : Version 4
File size : 9.96 GiB
Duration : 1 h 34 min
Overall bit rate : 15.1 Mb/s
Encoded date : UTC 2020-02-22 16:28:45
Writing application : v6.1.0 ('Old Devil') built on Mar 4 2013 09:10:42
Writing library : libebml v1.3.0 + v1.4.0

Video
ID : 1
Format : AVC
Format/Info : Advanced Video Codec
Format profile : [email protected]
Format settings : CABAC / 4 Ref Frames
Format settings, CABAC : Yes
Format settings, RefFrames : 4 frames
Codec ID : V_MPEG4/ISO/AVC
Duration : 1 h 34 min
Bit rate : 13.4 Mb/s
Width : 1 920 pixels
Height : 1 080 pixels
Display aspect ratio : 16:9
Frame rate mode : Constant
Frame rate : 23.976 (24000/1001) FPS
Color space : YUV
Chroma subsampling : 4:2:0
Bit depth : 8 bits
Scan type : Progressive
Bits/(Pixel*Frame) : 0.270
Stream size : 8.64 GiB (87%)
Writing library : core 159 r2991 1771b55
Encoding settings : cabac=1 / ref=4 / deblock=1:-3:-3 / analyse=0x3:0x113 / me=umh / subme=8 / psy=1 / psy_rd=1.00:0.00 / mixed_ref=1 / me_range=32 / chroma_me=1 / trellis=2 / 8x8dct=1 / cqm=0 / deadzone=21,11 / fast_pskip=1 / chroma_qp_offset=-2 / threads=34 / lookahead_threads=5 / sliced_threads=0 / nr=0 / decimate=1 / interlaced=0 / bluray_compat=0 / constrained_intra=0 / bframes=3 / b_pyramid=2 / b_adapt=2 / b_bias=0 / direct=3 / weightb=1 / open_gop=0 / weightp=2 / keyint=240 / keyint_min=24 / scenecut=40 / intra_refresh=0 / rc_lookahead=50 / rc=2pass / mbtree=1 / bitrate=13435 / ratetol=1.0 / qcomp=0.60 / qpmin=0 / qpmax=69 / qpstep=4 / cplxblur=20.0 / qblur=0.5 / ip_ratio=1.40 / aq=3:0.70
Default : Yes
Forced : No
Statistics Tags Issue : no_variable_data 1970-01-01 00:00:00 / v6.1.0 ('Old Devil') built on Mar 4 2013 09:10:42 2020-02-22 16:28:45
FromStats_BitRate : 13429957
FromStats_Duration : 01:34:13.940000000
FromStats_FrameCount : 135559
FromStats_StreamSize : 9491521663

Audio #1
ID : 2
Format : AC-3
Format/Info : Audio Coding 3
Commercial name : Dolby Digital
Codec ID : A_AC3
Duration : 1 h 34 min
Bit rate mode : Constant
Bit rate : 192 kb/s
Channel(s) : 2 channels
Channel layout : L R
Sampling rate : 48.0 kHz
Frame rate : 31.250 FPS (1536 SPF)
Bit depth : 16 bits
Compression mode : Lossy
Stream size : 129 MiB (1%)
Title : UKR
Language : Ukrainian
Service kind : Complete Main
Default : Yes
Forced : Yes

Audio #2
ID : 3
Format :
Format/Info : Digital Theater Systems
Codec ID : A_DTS
Duration : 1 h 34 min
Bit rate mode : Constant
Bit rate : 1 509 kb/s
Channel(s) : 6 channels
Channel layout : C L R Ls Rs LFE
Sampling rate : 48.0 kHz
Frame rate : 93.750 FPS (512 SPF)
Bit depth : 24 bits
Compression mode : Lossy
Stream size : 1 017 MiB (10%)
Title : ENG
Language : English
Default : No
Forced : No
Statistics Tags Issue : no_variable_data 1970-01-01 00:00:00 / v6.1.0 ('Old Devil') built on Mar 4 2013 09:10:42 2020-02-22 16:28:45
FromStats_BitRate : 1509000
FromStats_Duration : 01:34:13.952000000
FromStats_FrameCount : 530058
FromStats_StreamSize : 1066476696

Text #1
ID : 4
Format : UTF-8
Codec ID : S_TEXT/UTF8
Codec ID/Info : UTF-8 Plain Text
Title : ENG
Language : English
Default : No
Forced : No
Statistics Tags Issue : no_variable_data 1970-01-01 00:00:00 / v6.1.0 ('Old Devil') built on Mar 4 2013 09:10:42 2020-02-22 16:28:45
FromStats_BitRate : 61
FromStats_Duration : 01:33:15.673000000
FromStats_FrameCount : 1197
FromStats_StreamSize : 43302

Text #2
ID : 5
Format : UTF-8
Codec ID : S_TEXT/UTF8
Codec ID/Info : UTF-8 Plain Text
Title : ENG SDH
Language : English
Default : No
Forced : No
Statistics Tags Issue : no_variable_data 1970-01-01 00:00:00 / v6.1.0 ('Old Devil') built on Mar 4 2013 09:10:42 2020-02-22 16:28:45
FromStats_BitRate : 68
FromStats_Duration : 01:33:27.810000000
FromStats_FrameCount : 1410
FromStats_StreamSize : 48167

Menu
00:00:00.000 : en:Chapter 01
00:10:01.184 : en:Chapter 02
00:20:02.118 : en:Chapter 03
00:30:02.634 : en:Chapter 04
00:40:02.775 : en:Chapter 05
00:50:03.751 : en:Chapter 06
01:00:04.434 : en:Chapter 07
01:10:04.450 : en:Chapter 08
01:20:05.592 : en:Chapter 09
01:30:05.859 : en:Chapter 10
Скріншоти








За доріжку подяка п.: akon111, Breniak
За постер подяка п. Bohdan237
Особиста подяка пану denixx за надану матеріальну допомогу на підтримку цього і майбутніх релізів.
Джерело:


 Трекер:    Зареєстрований   

Завантажити / скачати фільм українською



відео для новачків



 Зареєстрований:   2020-02-22 19:50
 Розмір:   9.96 GB 
 Оцінка фільму:   7/10 (Голосів: 4)
   
MakRA 
VIP


З нами з: 11.11.18
Востаннє: 21.09.20
Повідомлень: 1119

2020-02-22 23:17  
Дякую, пане drop_plz за доволі непоганий і незаслужено забутий спін-офф оригінальних фільмів. У свій час передивлявся декілька раз. Теперішні подібні комедії чомусь мають вищі рейтинги Happy, тому не завжди їм можна довіряти.
Ваш часовий пояс: GMT + 2 Години

Нова тема   Відповісти