Так близько до горизонту / Dem Horizont so nah (2019) 720p Ukr/Ger

Нові коментарі

Нова тема   Відповісти
Автор Повідомлення
staf777 
Відео Гуртом - підтримка та поширення
Відео Гуртом - підтримка та поширення


З нами з: 16.11.16
Востаннє: 25.09.20
Повідомлень: 4039

2020-02-22 19:48  
Так близько до горизонту / Dem Horizont so nah (2019) 720p Ukr/Ger



Жанр: драма, романтичний
Країна: Франція, Німеччина



Кінокомпанія: StudioCanal, Pantaleon Films
Режисер: Тім Трахте
Актори: Яннік Шуманн, Луна Ведлер, Луїза Бефорт, Штефан Кампвірт, Фредерік Лау, Деніс Москітто, Джеймі Бік, Нікола Грюндель, Генрі Хорн, Крістін Хунольд

Сюжет:
Літо 1999 року. Молода дівчина Джессіка тільки почала своє доросле життя та зовсім не знає, що їй чекати в майбутньому. У неї є якісь дрібні цілі, але великих планів поки немає. Як мінімум не було, поки дівчині не зустрівся красень на ім'я Денні. Неймовірна посмішка, приваблива зовнішність – немає в ньому чогось того, що не сподобалося би Джесіці. Так вона закохалася в нього по вуха майже з першого погляду. Хлопець працює моделлю та живе сьогоднішнім днем, не заглядаючи далеко в майбутнє. І йому також подобається Джессіка. Ця взаємна любов могла би стати вічною, якби їх не розлучав ВІЛ. У них не так багато часу, щоб витрачати його даремно.


Тривалість: 01:57:12
Якість: 720p
Відео:
кодек:
розмір кадру: 1280x536
бітрейт: 6000 кб/с

Аудіо # 1:
мова: українська
переклад: професійний дубльований
кодек: 5.1
бітрейт: 384 кб/с

Аудіо # 2:
мова: німецька
переклад: оригінал
кодек: 5.1
бітрейт: 640 кб/с
Info
General
Complete name : Dem Horizont so nah (2019) 720p.
Format :
Format version : Version 4
File size : 5.73 GiB
Duration : 1 h 57 min
Overall bit rate : 6 998 kb/s
Movie name : Так близько до горизонту / Dem Horizont so nah (2019)
Encoded date : UTC 2020-03-21 17:05:49
Writing application : v30.1.0 ('Forever And More') 64-bit
Writing library : libebml v1.3.6 + v1.4.9
Cover : Yes
Attachments : cover.jpg

Video
ID : 1
Format : AVC
Format/Info : Advanced Video Codec
Format profile : [email protected]
Format settings : CABAC / 12 Ref Frames
Format settings, CABAC : Yes
Format settings, RefFrames : 12 frames
Codec ID : V_MPEG4/ISO/AVC
Duration : 1 h 57 min
Bit rate : 6 000 kb/s
Width : 1 280 pixels
Height : 536 pixels
Display aspect ratio : 2.40:1
Frame rate mode : Constant
Frame rate : 24.000 FPS
Color space : YUV
Chroma subsampling : 4:2:0
Bit depth : 8 bits
Scan type : Progressive
Bits/(Pixel*Frame) : 0.364
Stream size : 4.89 GiB (85%)
Title : Encoded by seleZen
Writing library : core 142 r2431+42 c69a006 tMod [[email protected] X86_64]
Encoding settings : cabac=1 / ref=12 / deblock=1:-2:-2 / analyse=0x3:0x133 / me=umh / subme=10 / psy=1 / fade_compensate=0.00 / psy_rd=1.00:0.00 / mixed_ref=1 / me_range=32 / chroma_me=1 / trellis=2 / 8x8dct=1 / cqm=0 / deadzone=21,11 / fast_pskip=0 / chroma_qp_offset=-2 / threads=24 / lookahead_threads=4 / sliced_threads=0 / nr=0 / decimate=0 / interlaced=0 / bluray_compat=0 / constrained_intra=0 / fgo=0 / bframes=8 / b_pyramid=2 / b_adapt=2 / b_bias=0 / direct=3 / weightb=1 / open_gop=0 / weightp=2 / keyint=240 / keyint_min=24 / scenecut=40 / intra_refresh=0 / rc_lookahead=50 / rc=2pass / mbtree=0 / bitrate=6000 / ratetol=1.0 / qcomp=0.60 / qpmin=0:0:0 / qpmax=51:51:51 / qpstep=4 / cplxblur=20.0 / qblur=0.5 / vbv_maxrate=50000 / vbv_bufsize=62500 / nal_hrd=none / filler=0 / ip_ratio=1.40 / pb_ratio=1.30 / aq=3:0.80 / aq-sensitivity=10.00 / aq-factor=1.00:1.00:1.00 / aq2=0 / aq3=0
Language : English
Default : Yes
Forced : No

Audio #1
ID : 2
Format : AC-3
Format/Info : Audio Coding 3
Commercial name : Dolby Digital
Codec ID : A_AC3
Duration : 1 h 57 min
Bit rate mode : Constant
Bit rate : 384 kb/s
Channel(s) : 6 channels
Channel layout : L R C LFE Ls Rs
Sampling rate : 48.0 kHz
Frame rate : 31.250 FPS (1536 SPF)
Bit depth : 16 bits
Compression mode : Lossy
Stream size : 322 MiB (5%)
Title : , 5.1, 384 Kbps
Language : Ukrainian
Service kind : Complete Main
Default : Yes
Forced : No

Audio #2
ID : 3
Format : AC-3
Format/Info : Audio Coding 3
Commercial name : Dolby Digital
Codec ID : A_AC3
Duration : 1 h 57 min
Bit rate mode : Constant
Bit rate : 640 kb/s
Channel(s) : 6 channels
Channel layout : L R C LFE Ls Rs
Sampling rate : 48.0 kHz
Frame rate : 31.250 FPS (1536 SPF)
Bit depth : 16 bits
Compression mode : Lossy
Stream size : 536 MiB (9%)
Title : , 5.1, 640 Kbps
Language : German
Service kind : Complete Main
Default : No
Forced : No

Menu
00:00:00.000 : de:Глава 01
00:11:47.625 : de:Глава 02
00:21:49.375 : de:Глава 03
00:30:45.333 : de:Глава 04
00:43:16.125 : de:Глава 05
00:54:25.792 : de:Глава 06
01:06:29.792 : de:Глава 07
01:19:23.625 : de:Глава 08
01:30:34.458 : de:Глава 09
01:42:39.000 : de:Глава 10
Скріншоти






Джерело:


 Трекер:    Зареєстрований   

Завантажити / скачати фільм українською



відео для новачків



 Зареєстрований:   2020-03-21 20:35
 Розмір:   5.73 GB 
 Оцінка фільму:   8.7/10 (Голосів: 7)
   
Parzival 
Новенький


З нами з: 15.05.18
Востаннє: 16.09.20
Повідомлень: 8

2020-02-23 00:29  
Коли очікувати?

Додано через 3 хвилини 50 секунд:

Ясно вже глянув, тюнс буде не раніше 17 березня

bot 
робот


З нами з: 30.09.07
Востаннє: 26.05.05
Повідомлень: 25605

2020-03-21 20:35  
Тему перенесено з Анонси релізів до форуму Фільми в HD


antik_2008

Ваш часовий пояс: GMT + 2 Години

Нова тема   Відповісти