Мамця (Сезон 5) / Mom (Season 5) (2017-2018) 1080p Ukr/Eng | Sub Eng

Нові коментарі

Нова тема   Відповісти
Автор Повідомлення
Anonymous 







2020-02-22 18:14  
Мамця (Сезон 5) / Mom (Season 5) (2017-2018) 1080p Ukr/Eng | Sub Eng

Мамця (Сезон 5) / Mom (Season 5) (2017-2018) 1080p Ukr/Eng | Sub Eng


Жанр: комедія, драма, романтичний
Країна: США



Кінокомпанія: Chuck Lorre Productions, Warner Bros. Television
Режисер: Джемма Бейкер (Gemma Baker), Едді Ґородецький (Eddie Gorodetsky), Чак Лоррі (Chuck Lorre)
Актори: Анна Фаріс (Anna Faris), Еллісон Дженні (Allison Janney), Джеймі Преслі (Jaime Pressly), Саді Кальвано (Sadie Calvano), Мімі Кенеді (Mimi Kennedy) та інші

Сюжет:
Крісті - мати-одиначка, яка виховує двох дітей і намагається побороти алкогольну залежність. Щоб прогодувати свою сім'ю, вона влаштувалася офіціанткою в місцевий ресторан, де у неї зав'язалися стосунки з начальником Габріелем. Постійний тиск на неї чинить власна мати, яка також є колишньою алкоголічкою. Крісті постійно стикається з проблемами в житті: старша дочка почала жити дорослим життям, колишній чоловік постійно намагається підставити її, новий коханець виявився одруженим. Крісті намагається у всьому поганому знайти щось хороше, що допомагає їй стати сильною людиною, яка готова пройти будь-які випробування, що виникають на її шляху.


Тривалість: 1 серія: ~19 хв. (цілком серій: 22)
Перелік серій
01) Twinkle Lights and Grandma Shoes
02) Fish Town and Too Many Thank You's
03) A Seafaring Ancestor and a Bloomin' Onion
04) Fancy Crackers and Giant Women
05) Poodle Fuzz and a Twinge of Jealousy
06) Smooth Jazz and a Weird Floaty Eye
07) Too Many Hippies and Huevos Rancheros
08) An Epi-Pen and a Security Cat
09) Teenage Vampires and a White Russian
10) A Bear and a Bladder Infection
11) Bert and Ernie and a Blessing of the People
12) Push-Down Coffee and a Working Turn Signal
13) Pudding and a Screen Door
14) Charlotte Bronte and a Backhoe
15) Esta Loca and a Little Klingon
16) Eight Cats and the Hat Show
17) Crazy Snakes and a Clog to the Head
18) Spaghetti Sauce and a Dumpster Fire
19) A Taco Bowl and a Tubby Seamstress
20) Ocular Fluid and Fighting Robots
21) Phone Confetti and a Wee Dingle
22) Diamond Earrings and a Pumpkin Head
Якість: [Amazon]
Відео:
кодек:
розмір кадру: 1920 х 1080
бітрейт: ~10 мб/с

Аудіо # 1:
мова: українська
переклад: багатоголосий закадровий | Paramount Comedy
кодек: 2.0
бітрейт: 192 кб/с

Аудіо # 2:
мова: англійська
переклад: оригінал
кодек: 5.1
бітрейт: 640 кб/с

Субтитри:
мова: англійська
тип: програмні (м'які)
формат: *.srt
Info
General
Unique ID : 8996975710796030739560242589843190802 (0x6C4C126749CF8E6DA5A4DD4E411F412)
Complete name : E:\Support\Mom (Season 5) [, 1080p, Ukr, Eng]\Mom. s05e01. Twinkle Lights and Grandma Shoes.
Format :
Format version : Version 4
File size : 1.79 GiB
Duration : 20 min 29 s
Overall bit rate mode : Variable
Overall bit rate : 12.5 Mb/s
Encoded date : UTC 2020-02-08 12:18:36
Writing application : v42.0.0 ('Overtime') 64-bit
Writing library : libebml v1.3.10 + v1.5.2

Video
ID : 1
Format : AVC
Format/Info : Advanced Video Codec
Format profile : [email protected]
Format settings : CABAC / 4 Ref Frames
Format settings, CABAC : Yes
Format settings, Reference : 4 frames
Codec ID : V_MPEG4/ISO/AVC
Duration : 20 min 29 s
Bit rate mode : Variable
Bit rate : 11.7 Mb/s
Maximum bit rate : 15.0 Mb/s
Width : 1 920 pixels
Height : 1 080 pixels
Display aspect ratio : 16:9
Frame rate mode : Constant
Frame rate : 25.000 FPS
Original frame rate : 23.976 (24000/1001) FPS
Color space : YUV
Chroma subsampling : 4:2:0
Bit depth : 8 bits
Scan type : Progressive
Bits/(Pixel*Frame) : 0.226
Stream size : 1.67 GiB (93%)
Language : English
Default : Yes
Forced : No
Color range : Limited
Color primaries : BT.709
Transfer characteristics : BT.709
Matrix coefficients : BT.709

Audio #1
ID : 2
Format : AC-3
Format/Info : Audio Coding 3
Commercial name : Dolby Digital
Codec ID : A_AC3
Duration : 20 min 29 s
Bit rate mode : Constant
Bit rate : 192 kb/s
Channel(s) : 2 channels
Channel layout : L R
Sampling rate : 48.0 kHz
Frame rate : 31.250 FPS (1536 SPF)
Compression mode : Lossy
Stream size : 28.1 MiB (2%)
Title : Paramount Comedy
Language : Ukrainian
Service kind : Complete Main
Default : Yes
Forced : No

Audio #2
ID : 3
Format : AC-3
Format/Info : Audio Coding 3
Commercial name : Dolby Digital
Codec ID : A_AC3
Duration : 20 min 29 s
Bit rate mode : Constant
Bit rate : 640 kb/s
Channel(s) : 6 channels
Channel layout : L R C LFE Ls Rs
Sampling rate : 48.0 kHz
Frame rate : 31.250 FPS (1536 SPF)
Compression mode : Lossy
Stream size : 93.8 MiB (5%)
Language : English
Service kind : Complete Main
Default : No
Forced : No

Text
ID : 4
Format : UTF-8
Codec ID : S_TEXT/UTF8
Codec ID/Info : UTF-8 Plain Text
Duration : 19 min 53 s
Bit rate : 100 b/s
Count of elements : 479
Stream size : 14.6 KiB (0%)
Language : English
Default : No
Forced : No
Скріншоти
Джерело:
Особиста оцінка: 0 - не дивився





Бронзовий реліз (на рейтинг впливає 75% завантаженого)
 Трекер:    Зареєстрований   

Завантажити / скачати серіал українською



відео для новачків



 Зареєстрований:   2020-02-22 18:14
 Розмір:   34.84 GB 
 Оцінка серіалу:   9.9/10 (Голосів: 9)
   
vkrav4uk 
Свій


З нами з: 03.03.12
Востаннє: 03.12.20
Повідомлень: 72

2020-02-22 18:59  
ДЯКУЮ !!!!!! =) ЧЕКАВ !
naram333 
Новенький


З нами з: 22.12.16
Востаннє: 20.11.20
Повідомлень: 1

2020-02-23 21:36  
Дуже вдячний)))
0mage0 
VIP


З нами з: 06.10.15
Востаннє: 02.12.20
Повідомлень: 709

2020-04-07 20:33  
Загалом сезон, як завжди, цікавий та смішний, але під кінець мамця трошки розчарувала. Сподіваюся, в наступному сезоні вона виправиться. І сподіваюся, наступний сезон буде в українському озвучуванні Happy
Переклад, як завжди. Іноді щось дослівно перекладають і виходить повна нісенітниця, іноді суржать аж до вживання "слова" "мужчина" Sad (1)

Dominator79 
Новенький


З нами з: 03.04.14
Востаннє: 14.10.20
Повідомлень: 1

2020-05-05 21:59  
Дуже дуже дуже дякую!!! Просто неймовірний серіал. Маю надію, що з'явиться шостий сезон в українській озвучці.
sloboda9 
Новенький


З нами з: 12.03.15
Востаннє: 03.11.20
Повідомлень: 6

2020-07-04 09:31  
6й сезон вже показують на Парамаунт Камеді)))
Ваш часовий пояс: GMT + 2 Години

Нова тема   Відповісти