Мортал Комбат / Mortal Kombat (1995) 1080p H.265 Ukr/Eng | Sub Eng

Нові коментарі

Нова тема   Відповісти
Автор Повідомлення
Anonymous 







2020-02-22 15:01  
Мортал Комбат / Mortal Kombat (1995) 1080p H.265 Ukr/Eng | Sub Eng

Мортал Комбат / Mortal Kombat (1995) 1080p H.265 Ukr/Eng | Sub Eng


Жанр: екшн, пригодницький, фентезі
Країна: США
Кінокомпанія: New Line Cinema, Threshold Entertainment
Режисер: Пол Андерсон [Paul W.S. Anderson]
Актори: Крістофер Ламберт [Christopher Lambert], Робін Шу [Robin Shou], Лінден Ешбі [Linden Ashby], Бріджіт Вілсон [Bridgette Wilson-Sampras], Кері-Хіроюкі Тагава [Cary-Hiroyuki Tagawa], Таліса Сото [Talisa Soto], Тревор Годдар [Trevor Goddard], Кріс Касамасса [Chris Casamassa], Франсуа Петі [François Petit], Кіт Кук [Keith Cooke], Стівен Хо [Steven Ho], Ед Бун [Ed Boon].

Сюжет:
Темні сили із потойбічного світу вирішили захопити світ людей. Але традиційно перед окупацією нових світів, володар Шао-Кан та його чаклун Шан-Цун влаштовує ритуальні двобої між своїми воїнами та найкращими бійцями світу, який планують підкорити.

Цього разу на турнірі "Смертельна битва" буде вирішуватись доля Землі…

Тривалість: 01:41:25
Якість:

Відео:
кодек: H.265 (HEVC)
розмір кадру: 1920 x 1080
бітрейт: 12 284 кб/с
бітова глибина: 10 біт

Увага! Перед завантаженням переконайтесь, що ваш пристрій відтворення (та/або ПЗ) підтримує H.265 (HEVC)

Аудіо # 1:
мова: українська
переклад: багатоголосий закадровий
кодек: AC-3 5.1
бітрейт: 448 кб/с

Аудіо # 2:
мова: українська
переклад: багатоголосий закадровий
кодек: AC-3 2.0
бітрейт: 192 кб/с

Аудіо # 3:
мова: англійська
переклад: оригінал
кодек: 5.1
бітрейт: 1510 кб/с

Субтитри # 1: (Full)
мова: англійська
тип: програмні (м'які)
формат: *.srt


Info
Код:
General
Unique ID                                : 143658694801037580098826584865733725511 (0x6C13A88060BAB7BB51E7F338768DCD47)
Complete name                            : Mortal Kombat (1995) 1080p H.265 [UKR_ENG] [Hurtom].
Format                                   :
Format version                           : Version 4
File size                                : 10.2 GiB
Duration                                 : 1 h 41 min
Overall bit rate                         : 14.4 Mb/s
Movie name                               : Мортал Комбат / Mortal Kombat (1995)
Encoded date                             : UTC 2020-02-22 11:47:02
Writing application                      : v20.0.0 ('I Am The Sun') 64-bit
Writing library                          : libebml v1.3.5 + v1.4.8
Cover                                    : Yes
Attachments                              : cover.jpg

Video
ID                                       : 1
Format                                   : HEVC
Format/Info                              : High Efficiency Video Coding
Format profile                           : Main [email protected]@High
Codec ID                                 : V_MPEGH/ISO/HEVC
Duration                                 : 1 h 41 min
Bit rate                                 : 12.3 Mb/s
Width                                    : 1 920 pixels
Height                                   : 1 080 pixels
Display aspect ratio                     : 16:9
Frame rate mode                          : Constant
Frame rate                               : 23.976 (24000/1001) FPS
Color space                              : YUV
Chroma subsampling                       : 4:2:0
Bit depth                                : 10 bits
Bits/(Pixel*Frame)                       : 0.247
Stream size                              : 8.70 GiB (85%)
Title                                    : Мортал Комбат / Mortal Kombat (1995)
Writing library                          : x265 2.9+9-f74003e88622:[Windows][GCC 8.2.0][64 bit] 10bit
Encoding settings                        : cpuid=1049583 / frame-threads=5 / numa-pools=4 / wpp / no-pmode / no-pme / no-psnr / no-ssim / log-level=3 / input-csp=1 / input-res=1920x1080 / interlace=0 / total-frames=0 / level-idc=41 / high-tier=1 / uhd-bd=0 / ref=4 / allow-non-conformance / no-repeat-headers / annexb / no-aud / no-hrd / info / hash=0 / no-temporal-layers / open-gop / min-keyint=24 / keyint=240 / gop-lookahead=0 / bframes=12 / b-adapt=2 / b-pyramid / bframe-bias=0 / rc-lookahead=40 / lookahead-slices=6 / scenecut=40 / radl=0 / no-intra-refresh / ctu=32 / min-cu-size=8 / rect / no-amp / max-tu-size=32 / tu-inter-depth=4 / tu-intra-depth=4 / limit-tu=1 / rdoq-level=1 / dynamic-rd=0.00 / no-ssim-rd / signhide / no-tskip / nr-intra=0 / nr-inter=0 / no-constrained-intra / no-strong-intra-smoothing / max-merge=4 / limit-refs=3 / no-limit-modes / me=3 / subme=7 / merange=57 / temporal-mvp / weightp / weightb / no-analyze-src-pics / deblock=-3:-3 / no-sao / no-sao-non-deblock / rd=4 / no-early-skip / no-rskip / no-fast-intra / no-tskip-fast / no-cu-lossless / no-b-intra / no-splitrd-skip / rdpenalty=0 / psy-rd=2.00 / psy-rdoq=1.00 / no-rd-refine / no-lossless / cbqpoffs=0 / crqpoffs=0 / rc=crf / crf=21.0 / qcomp=0.60 / qpstep=4 / stats-write=0 / stats-read=0 / vbv-maxrate=50000 / vbv-bufsize=50000 / vbv-init=0.9 / crf-max=0.0 / crf-min=0.0 / ipratio=1.40 / pbratio=1.30 / aq-mode=3 / aq-strength=1.00 / no-cutree / zone-count=0 / no-strict-cbr / qg-size=32 / no-rc-grain / qpmax=69 / qpmin=0 / no-const-vbv / sar=1 / overscan=0 / videoformat=5 / range=0 / colorprim=1 / transfer=1 / colormatrix=1 / chromaloc=0 / display-window=0 / max-cll=0,0 / min-luma=0 / max-luma=1023 / log2-max-poc-lsb=8 / vui-timing-info / vui-hrd-info / slices=1 / no-opt-qp-pps / no-opt-ref-list-length-pps / no-multi-pass-opt-rps / scenecut-bias=0.05 / no-opt-cu-delta-qp / no-aq-motion / no-hdr / no-hdr-opt / no-dhdr10-opt / no-idr-recovery-sei / analysis-reuse-level=5 / scale-factor=0 / refine-intra=0 / refine-inter=0 / refine-mv=0 / no-limit-sao / ctu-info=0 / no-lowpass-dct / refine-mv-type=0 / copy-pic=1 / max-ausize-factor=1.0 / no-dynamic-refine / no-single-sei
Language                                 : English
Default                                  : Yes
Forced                                   : No
Color range                              : Limited
Color primaries                          : BT.709
Transfer characteristics                 : BT.709
Matrix coefficients                      : BT.709

Audio #1
ID                                       : 2
Format                                   : AC-3
Format/Info                              : Audio Coding 3
Commercial name                          : Dolby Digital
Codec ID                                 : A_AC3
Duration                                 : 1 h 41 min
Bit rate mode                            : Constant
Bit rate                                 : 448 kb/s
Channel(s)                               : 6 channels
Channel layout                           : L R C LFE Ls Rs
Sampling rate                            : 48.0 kHz
Frame rate                               : 31.250 FPS (1536 SPF)
Compression mode                         : Lossy
Stream size                              : 325 MiB (3%)
Title                                    : / 5.1 Ch / 448 kbps / БЗ / Novy Kanal
Language                                 : Ukrainian
Service kind                             : Complete Main
Default                                  : Yes
Forced                                   : Yes

Audio #2
ID                                       : 3
Format                                   : AC-3
Format/Info                              : Audio Coding 3
Commercial name                          : Dolby Digital
Codec ID                                 : A_AC3
Duration                                 : 1 h 41 min
Bit rate mode                            : Constant
Bit rate                                 : 192 kb/s
Channel(s)                               : 2 channels
Channel layout                           : L R
Sampling rate                            : 48.0 kHz
Frame rate                               : 31.250 FPS (1536 SPF)
Compression mode                         : Lossy
Stream size                              : 139 MiB (1%)
Title                                    : / 2.0 Ch / 192 kbps / БЗ / Novy Kanal
Language                                 : Ukrainian
Service kind                             : Complete Main
Default                                  : No
Forced                                   : No

Audio #3
ID                                       : 4
Format                                   :
Format/Info                              : Digital Theater Systems
Codec ID                                 : A_DTS
Duration                                 : 1 h 41 min
Bit rate mode                            : Constant
Bit rate                                 : 1 509 kb/s
Channel(s)                               : 6 channels
Channel layout                           : C L R Ls Rs LFE
Sampling rate                            : 48.0 kHz
Frame rate                               : 93.750 FPS (512 SPF)
Bit depth                                : 24 bits
Compression mode                         : Lossy
Stream size                              : 1.07 GiB (10%)
Title                                    : / 5.1 Ch / 1509 kbps / Original
Language                                 : English
Default                                  : No
Forced                                   : No

Text
ID                                       : 5
Format                                   : UTF-8
Codec ID                                 : S_TEXT/UTF8
Codec ID/Info                            : UTF-8 Plain Text
Duration                                 : 1 h 39 min
Bit rate                                 : 27 b/s
Count of elements                        : 756
Stream size                              : 19.9 KiB (0%)
Title                                    : Full
Language                                 : English
Default                                  : No
Forced                                   : No

Menu
00:00:00.000                             : en:Main Title
00:00:50.133                             : en:"Your Brother's Soul is Mine"
00:02:39.284                             : en:Sonya Blade
00:04:50.415                             : en:Johny Cage
00:07:56.893                             : en:The Temple of Light, China
00:12:10.354                             : en:Chai Wan Bay, Hong Kong
00:15:35.935                             : en:Scorpian and Sub-Zero
00:18:15.219                             : en:The Chosen One
00:21:30.372                             : en:Arrival on the Island
00:25:00.832                             : en:A Taste of Things to Come
00:29:01.030                             : en:Kano and the Prince
00:36:24.557                             : en:Dumb and Ugly
00:39:41.670                             : en:The Tournament
00:42:41.850                             : en:Something for Sonya
00:45:38.527                             : en:Johnny's Turn
00:50:59.473                             : en:Tip from the Princess
00:52:52.252                             : en:The Element Which Brings Life
00:56:08.281                             : en:Goro's Fury
01:00:15.028                             : en:The Fear Inside
01:05:48.653                             : en:Johnny vs. Goro
01:09:06.016                             : en:The Abduction of Sonya
01:10:51.956                             : en:Into Outworld
01:17:09.666                             : en:The Black Tower
01:20:50.470                             : en:Liu vs. Shang Tsung
01:23:53.987                             : en:"Face Your Worst Fear"
01:30:26.629                             : en:The Emperor
01:31:34.864                             : en:End Credits
Світлини




Джерело: &
Особиста оцінка: 0 - не дивився


Срібний реліз (на рейтинг впливає 50% завантаженого)
 Трекер:    Зареєстрований   

Завантажити / скачати фільм українською



відео для новачків



 Зареєстрований:   2020-02-22 15:01
 Розмір:   10.23 GB 
 Оцінка фільму:   10/10 (Голосів: 9)
   
Інші релізи
   Мортал Комбат / Mortal Kombat (1995) 720p Ukr/Eng | Sub Eng -_-B_Е_N_D_E_R-_-  1 / 0   4.72 GB   2020-03-21 12:31 
   Мортал Комбат / Mortal Kombat (1995) 1080p Ukr/Eng | Sub Eng staf777  5 / 0   9.98 GB   2020-02-19 05:54 
   Мортал Комбат / Mortal Kombat (1995) Remux 1080p Ukr/Eng | Sub Eng MakRA  2 / 0   17.58 GB   2019-05-21 00:30 
   Мортал Комбат / Mortal Kombat (1995) AVC Ukr/Eng | sub Eng Arsenfpu  4 / 0   1.61 GB   2019-01-07 11:18 
   Мортал Комбат / Mortal Kombat (1995) 720p Zeus62  1 / 0   4.3 GB   2011-10-27 17:16 
   Мортал Комбат / Mortal Kombat (1995) Ukr/Eng ua2004  6 / 0   1.93 GB   2009-07-31 12:24 
Ваш часовий пояс: GMT + 2 Години

Нова тема   Відповісти