Погоня за любов'ю / Social Animals (2018) AVC

Нові коментарі

Нова тема   Відповісти
Автор Повідомлення
Arsenfpu 
Відео Гуртом - фільмокрай
Відео Гуртом - фільмокрай


З нами з: 30.04.09
Востаннє: 05.08.20
Повідомлень: 7115

2020-02-22 01:30  
Погоня за любов'ю / Social Animals (2018) AVC

Погоня за любов'ю / Social Animals (2018) AVC


Жанр: комедія
Країна: США



Кінокомпанія: Cranium Entertainment, Aqute Media, BondIt Media Capital
Режисер: Тереза ​​Беннетт
Актори: Саміра Уайлі, Карлі Чаікін, Джош Реднор, Ая Кеш, Ноель Крісті Уеллс, Фортун Феймстер, Адам Шапіро, Шарлотта Делані Ріггс, Гарі Тіг, Брейді Скотт, Шейн Якобсен, Трістан Ріггс, Джеймс Хел Харді, Мінді Реймонд, Карлтон кодло , Коулмен Леннам, Наталі Холмс, Ріко Леброн, Клер Райлі

Сюжет:
Так вже вийшло, що в житті Зої Крендл нічого не складається. З квартири виселяють, бізнес йде на дно, в особистому житті далі романів на одну ніч не просувається. І коли, як здавалося, все йде під укіс, вона зустрічає симпатягу-невдаху Пола. Між ними відразу виникає зв'язок. Але є одна проблема: Пол одружений. Зої разом з подругою розробляє план, який допоможе врятувати бізнес і влаштувати особисте життя.


Тривалість: 01:23:43
Якість:
Відео:
кодек:
розмір кадру: 1 024 х 432
бітрейт: 2 299 кб/с

Аудіо:
мова: українська
переклад: багатоголосий закадровий
кодек: 2.0
бітрейт: 192 кб/с
Скріншоти














Про файл
General
Unique ID : 47700105674693500425422730160215058077 (0x23E2B4C8AAB51F022923A58AE5FA669D)
Complete name : C:\Social Animals (2018) AVC [Hurtom].
Format :
Format version : Version 4 / Version 2
File size : 1.46 GiB
Duration : 1 h 23 min
Overall bit rate : 2 492 kb/s
Movie name : Погоня за любов'ю / Social Animals (2018)
Encoded date : UTC 2020-02-23 07:45:03
Writing application : v21.0.0 ('Tardigrades Will Inherit The Earth') 32-bit
Writing library : libebml v1.3.5 + v1.4.8
Cover : Yes
Attachments : cover.jpg

Video
ID : 1
Format : AVC
Format/Info : Advanced Video Codec
Format profile : [email protected]
Format settings, CABAC : Yes
Format settings, ReFrames : 8 frames
Codec ID : V_MPEG4/ISO/AVC
Duration : 1 h 23 min
Bit rate : 2 299 kb/s
Width : 1 024 pixels
Height : 432 pixels
Display aspect ratio : 2.40:1
Frame rate mode : Constant
Frame rate : 23.976 (24000/1001) FPS
Color space : YUV
Chroma subsampling : 4:2:0
Bit depth : 8 bits
Scan type : Progressive
Bits/(Pixel*Frame) : 0.217
Stream size : 1.34 GiB (92%)
Writing library : core 157 r2969 d4099dd
Encoding settings : cabac=1 / ref=8 / deblock=1:-1:-1 / analyse=0x3:0x133 / me=umh / subme=10 / psy=1 / psy_rd=1.00:0.15 / mixed_ref=1 / me_range=32 / chroma_me=1 / trellis=2 / 8x8dct=1 / cqm=0 / deadzone=21,11 / fast_pskip=0 / chroma_qp_offset=-3 / threads=6 / lookahead_threads=1 / sliced_threads=0 / nr=0 / decimate=1 / interlaced=0 / bluray_compat=0 / constrained_intra=0 / bframes=6 / b_pyramid=2 / b_adapt=2 / b_bias=0 / direct=3 / weightb=1 / open_gop=0 / weightp=2 / keyint=240 / keyint_min=23 / scenecut=40 / intra_refresh=0 / rc_lookahead=60 / rc=2pass / mbtree=1 / bitrate=2299 / ratetol=1.0 / qcomp=0.60 / qpmin=0 / qpmax=69 / qpstep=4 / cplxblur=20.0 / qblur=0.5 / vbv_maxrate=31250 / vbv_bufsize=31250 / nal_hrd=none / filler=0 / ip_ratio=1.40 / aq=1:1.00
Default : Yes
Forced : No

Audio
ID : 2
Format : AC-3
Format/Info : Audio Coding 3
Mode extension : CM (complete main)
Format settings, Endianness : Big
Codec ID : A_AC3
Duration : 1 h 23 min
Bit rate mode : Constant
Bit rate : 192 kb/s
Channel(s) : 2 channels
Channel positions : Front: L R
Sampling rate : 48.0 kHz
Frame rate : 31.250 FPS (1536 spf)
Compression mode : Lossy
Stream size : 115 MiB (8%)
Title : 2+2
Language : Ukrainian
Default : Yes
Forced : No
Джерело:
Особиста оцінка: не дивився


 Трекер:    Зареєстрований   

Завантажити / скачати фільм українською



відео для новачків



 Зареєстрований:   2020-02-23 11:21
 Розмір:   1.46 GB 
 Оцінка фільму:   8.1/10 (Голосів: 12)
   
bot 
робот


З нами з: 30.09.07
Востаннє: 26.05.05
Повідомлень: 25161

2020-02-23 11:21  
Тему перенесено з Анонси релізів до форуму Фільми


Arsenfpu

andriy_nv 
VIP


З нами з: 27.06.08
Востаннє: 04.08.20
Повідомлень: 1046

2020-02-26 19:02  
таке собі
ricardo13 
Частий відвідувач


З нами з: 12.12.09
Востаннє: 03.08.20
Повідомлень: 34

2020-05-18 19:19  
1/10 з натяжкою.
Ваш часовий пояс: GMT + 2 Години

Нова тема   Відповісти