Похмурий самурай / The Twilight Samurai / Tasogare Seibei (2002) Remux 1080p 2xUkr/Jap | Sub Ukr/Eng

Нові коментарі

Нова тема   Відповісти
Автор Повідомлення
IronBee 
Поважний учасник


З нами з: 08.02.10
Востаннє: 23.09.20
Повідомлень: 231

2020-02-18 22:27  
Похмурий самурай / The Twilight Samurai / Tasogare Seibei (2002) Remux 1080p 2xUkr/Jap | Sub Ukr/Eng

Похмурий самурай / The Twilight Samurai / Tasogare Seibei (2002) Remux 1080p 2xUkr/Jap | Sub Ukr/Eng


Жанр: драма, романтичний, мелодрама
Країна: Японія



Кінокомпанія: Eisei Gekijo Company, Hakuhodo, Nippon Shuppan Hanbai (Nippan) K.K.
Режисер: Йодзі Ямада
Актори: Хіроюкі Санада, Ріе Міядзава, Нендзі Кобаясі, Рен Осуґі, Міцуру Фукікоші, Канако Фукаура, Хіроші Канбе, Мікі Іто, Еріна Хашіґучі, Рейко Кусамура.

Сюжет:
Історія Сейбея - скромного самурая низького рангу і його сім'ї, що жили в епоху смути. Сейбей переміг у двобої суперника дерев'яним мечем і як тільки про це стало відомо, його проти його ж волі вплутали у конфлікт всередині самурайського клану. Він отримує наказ від сюзерена вбити такого ж як і він сам, самурая низького рангу - васала...


Тривалість: 02:09:02
Якість: Remux 1080p
Відео:
кодек:
розмір кадру: 1920 х 1080
бітрейт: 19,9 Мб/с

Аудіо # 1:
мова: українська | "Цікава Ідея"
переклад: професійний багатоголосий закадровий
кодек: 5.1
бітрейт: 448 кб/с

Аудіо # 2:
мова: українська | КІНО
переклад: двоголосий закадровий
кодек: 2.0
бітрейт: 192 кб/с
примітка: озвучено поверх російського закадрового озвучення, на проміжку 01:03:46-01:04:38 нема українського озвучення, так транслював канал

Аудіо # 3:
мова: японська
переклад: оригінал
кодек: Dolby TrueHD 5.1
бітрейт: 2010 кб/с

Субтитри:
мова: українська | команда субтитрування проекту "Відео Гуртом"
тип: програмні (м'які)
формат: *.srt

Субтитри:
мова: англійська
тип: пререндерні
формат: *.PGS
Info
General
Unique ID : 94732887796208550900141102535628214820 (0x4744E3F9F01907721D614046E856D224)
Complete name : D:\Films\Похмурий самурай The Twilight Samurai Tasogare Seibei (2002) Remux 1080p 2UkrJap Sub UkrEng[Hurtom].
Format :
Format version : Version 4
File size : 19.8 GiB
Duration : 2 h 9 min
Overall bit rate mode : Variable
Overall bit rate : 21.9 Mb/s
Encoded date : UTC 2020-02-14 14:06:20
Writing application : v43.0.0 ('The Quartermaster') 64-bit
Writing library : libebml v1.3.10 + v1.5.2

Video
ID : 1
Format : AVC
Format/Info : Advanced Video Codec
Format profile : [email protected]
Format settings : CABAC / 4 Ref Frames
Format settings, CABAC : Yes
Format settings, ReFrames : 4 frames
Codec ID : V_MPEG4/ISO/AVC
Duration : 2 h 9 min
Bit rate mode : Variable
Bit rate : 19.9 Mb/s
Maximum bit rate : 35.0 Mb/s
Width : 1 920 pixels
Height : 1 080 pixels
Display aspect ratio : 16:9
Frame rate mode : Constant
Frame rate : 23.976 (24000/1001) FPS
Standard : NTSC
Color space : YUV
Chroma subsampling : 4:2:0
Bit depth : 8 bits
Scan type : Progressive
Bits/(Pixel*Frame) : 0.401
Stream size : 18.0 GiB (91%)
Default : Yes
Forced : No
Color range : Limited
Color primaries : BT.709
Transfer characteristics : BT.709
Matrix coefficients : BT.709

Audio #1
ID : 2
Format : AC-3
Format/Info : Audio Coding 3
Commercial name : Dolby Digital
Codec ID : A_AC3
Duration : 2 h 9 min
Bit rate mode : Constant
Bit rate : 448 kb/s
Channel(s) : 6 channels
Channel layout : L R C LFE Ls Rs
Sampling rate : 48.0 kHz
Frame rate : 31.250 FPS (1536 SPF)
Bit depth : 16 bits
Compression mode : Lossy
Stream size : 414 MiB (2%)
Title : 5.1 448 кб/с професійний багатоголосий закадровий українська | "Цікава Ідея"
Language : Ukrainian
Service kind : Complete Main
Default : Yes
Forced : No

Audio #2
ID : 3
Format : AC-3
Format/Info : Audio Coding 3
Commercial name : Dolby Digital
Codec ID : A_AC3
Duration : 2 h 9 min
Bit rate mode : Constant
Bit rate : 192 kb/s
Channel(s) : 2 channels
Channel layout : L R
Sampling rate : 48.0 kHz
Frame rate : 31.250 FPS (1536 SPF)
Bit depth : 16 bits
Compression mode : Lossy
Stream size : 177 MiB (1%)
Title : 2.0 192 кб/с двоголосий закадровий | КІНО
Language : Ukrainian
Service kind : Complete Main
Default : No
Forced : No

Audio #3
ID : 4
Format : MLP FBA
Format/Info : Meridian Lossless Packing FBA
Commercial name : Dolby TrueHD
Codec ID : A_TRUEHD
Duration : 2 h 9 min
Bit rate mode : Variable
Bit rate : 1 299 kb/s
Maximum bit rate : 2 010 kb/s
Channel(s) : 6 channels
Channel layout : L R C LFE Ls Rs
Sampling rate : 48.0 kHz
Frame rate : 1 200.000 FPS (40 SPF)
Compression mode : Lossless
Stream size : 1.17 GiB (6%)
Language : Japanese
Default : No
Forced : No

Text #1
ID : 5
Format : UTF-8
Codec ID : S_TEXT/UTF8
Codec ID/Info : UTF-8 Plain Text
Duration : 2 h 5 min
Bit rate : 66 b/s
Count of elements : 1154
Stream size : 61.2 KiB (0%)
Language : Ukrainian
Default : Yes
Forced : No

Text #2
ID : 6
Format : PGS
Muxing mode : zlib
Codec ID : S_HDMV/PGS
Codec ID/Info : Picture based subtitle format used on BDs/HD-DVDs
Duration : 2 h 5 min
Bit rate : 27.1 kb/s
Count of elements : 2310
Stream size : 24.3 MiB (0%)
Language : English
Default : No
Forced : No
Скріншоти




Озвучено творчим об'єднанням:"Цікава Ідея"
Ролі озвучили: Юля Малахова, Ольга Мотрич, Євген Малуха, Роман Чупіс, Олексій Сафін, Матвій Ніколаєв та Влад Ковалевський.

Джерело: &
Особиста оцінка: 0 - не дивився


Авторський реліз (завантажувати можна без реєстрації)
 Трекер:    Зареєстрований   

Завантажити / скачати фільм українською



відео для новачків



 Зареєстрований:   2020-02-18 22:27
 Розмір:   19.78 GB 
 Оцінка фільму:   9.7/10 (Голосів: 7)
   
IronBee 
Поважний учасник


З нами з: 08.02.10
Востаннє: 23.09.20
Повідомлень: 231

2020-04-09 18:29  
Хороший фільм
Oleksa9 
VIP


З нами з: 17.05.12
Востаннє: 24.09.20
Повідомлень: 412

2020-05-16 10:27  
щьоб -> аби
чьорт -> дідько
кап/капають -> крап/крапають
заставив -> змусив
корзинки/корзини -> кошики
ставні -> віконниці
щьо, почюваєтеся, пощястило, красунечька, добранічь, якщьо, вчюся, чясто, щє, дівчят, нещьодавно, чюв, дощь, знущяєтесь, хочю, дочьок, чютки, чюти, зустрічятися, вибачь, щястя, нічього, хочь, щяслива, вибачь, почюв, дещьо, довічьно, вдячьний, спочятку, чюдово, щясливий

Ваш часовий пояс: GMT + 2 Години

Нова тема   Відповісти