Святі з Бундока / The Boondock Saints [Extended Cut] (1999) 720p Ukr/Eng | Sub Ukr/Eng

Нові коментарі

Нова тема   Відповісти
Автор Повідомлення
MakRA 
VIP


З нами з: 11.11.18
Востаннє: 19.09.20
Повідомлень: 1115

2020-02-18 13:28  
Святі з Бундока / The Boondock Saints [Extended Cut] (1999) 720p Ukr/Eng | Sub Ukr/Eng

Святі з Бундока / The Boondock Saints [Extended Cut] (1999) 720p Ukr/Eng | Sub Ukr/Eng

Альтернативні обкладинки:










Жанр: кримінальний, екшн, трилер
Країна: США , Канада



Кінокомпанія: Franchise Pictures, Brood Syndicate, Fried Films
Режисер: Трой Даффі [Troy Duffy]
Актори: Ві́ллем Дефо́ [Willem Dafoe], Шон Петрік Фленері [Sean Patrick Flanery], Норман Рідус [Norman Reedus], Девід Делла Рокко [David Della Rocco], Біллі Конноллі [Billy Connolly], Девід Феррі [David Ferry], Брайан Махоні [Brian Mahoney], Боб Марлі [Bob Marley], Річард Фіцпатрік [Richard Fitzpatrick], Вільям Янг [William Young], Роберт Пембертон [Robert Pemberton], Білл Крейг [Bill Craig]

Сюжет:
Чого тільки не буває на світі! Два звичайних ірландських хлопці, брати Коннор і Мерфі, преспокійно жили й працювали у своєму рідному Бостоні, поки в один прекрасний день на них не зійшло осяяння: сам Бог послав їх на землю з особливою місією, наділивши святою силою, щоб очистити світ від зла. І брати взялися за справу з усією серйозністю, властивою ірландцям. Незабаром місцеву мафію охоплює справжня паніка - адже методи "святих" не відрізняються особливою гуманністю, зате виявилися дуже ефективними - кров полилася рікою! Масовий відстріл мафіозі не міг не привернути уваги ФБР. Спецагент Пол Смекер, який веде розслідування, потрапляє в непросту ситуацію: службовий обов'язок вимагає припинити діяльність "святих братів», проте в душі він не тільки співчуває їм, але навіть готовий приєднатися до виконавців «священної» місії ...

Історія створення:


Написати сценарій Даффі наштовхнув особистий досвід, який він отримав під час проживання в Лос-Анджелесі (торговець наркотиками обкрадав труп неподалік від його дому). До цього часу Даффі ніколи не писав сценаріїв, працюючи викидайлом і барменом.

Восени 1996 року сценарій був завершений, і Даффі передав його продюсеру з New Line Cinema, щоб той, у свою чергу, узгодив його з головним редактором. З Даффі зв'язувалися продюсери з різних кіностудій для отримання прав на зйомку. У березні 1997 з ним підписала договір компанія Paramount Pictures за $ 500 000. І вже в кінці місяця Miramax Films отримала права на «Святих з нетрів». Студія запропонувала Даффі $ 450 000, щоб він став режисером фільму. Документальний фільм Overnight («Напередодні ввечері»), в якому розповідається історія створення фільму, розповідає, що сценарій коштував $ 300 000. Зйомки фільму було заплановано на початок осені 1997 року в Бостоні.

На роль братів планувалися такі актори, як Стівен Дорфф і Марк Волберг, але Волберг пішов зніматися у інший проект («Ночі в стилі буґі»). Режисер також дуже хотів зняти у фільмі Біллі Конноллі та Кеннета Брана, з Коноллі був укладений договір, проте Кеннет, який мав зіграти спеціального агента ФБР, відмовився від участі у фільмі. Також Даффі розглядав на роль головних героїв таких акторів, як Брендан Фрейзер, Нікі Катт і Юен Мак-Грегор. Режисер хотів запросити на роль агента ФБР Патріка Свейзі, але Miramax відмовила йому в цьому. До початку продюсерських робіт, які повинні були початися в грудні 1997 року, Miramax зупинила проект. Продюсер Ллойд Сеган сказав, що проект призупиняється через тривалий кастинг і проблеми з місцем зйомок.

Незалежна студія Franchise Pictures допомогла проекту новими інвестиціями, як тільки всі інші нюанси були вирішенні. Даффі почав знімати фільм у Торонто, після того як знайшов спонсорів, фінальні ж сцени були відзняті в Бостоні.


Тривалість: 01:48:27
Якість: 720p (by ESiR) Extended Cut - різниця між R-Rated та Unrated версіями фільму
Відео:
кодек:
розмір кадру: 1280 х 544
бітрейт: 4741 кб/с

Аудіо # 1:
мова: українська
переклад: багатоголосий закадровий
кодек: 2.0
бітрейт: 192 кб/с
примітка: у проміжку 37-38 хв. є кілька неозвучених фраз (лайка) та на 1 г. 45 хв. (останні кадри) є неозвучена хвилинка

Аудіо # 2:
мова: англійська
переклад: оригінал
кодек: 5.1
бітрейт: 1536 кб/с

Аудіо # 3:
мова: англійська
переклад: оригінал
кодек: 2.0
бітрейт: 192 кб/с

Аудіо # 4:
мова: англійська
переклад: коментарі режисера Троя Даффі
кодек: 2.0
бітрейт: 192 кб/с

Аудіо # 5:
мова: англійська
переклад: коментарі актора Біллі Конноллі
кодек: 2.0
бітрейт: 192 кб/с

Субтитри # 1: (Full)
мова: українська
тип: програмні (м'які)
формат: *.srt

Субтитри # 2-3: (Full) | (SDH)
мова: англійська
тип: програмні (м'які)
формат: *.srt

Збережено оригінальні іменовані розділи, як на Blu-ray.
Info
General
Unique ID : 256990717141202034891367594098664395704 (0xC1569C9C1E555E4F8ADEBB3FD4B7D3B8)
Complete name : E:\The Boondock Saints [Extended Cut] (1999) 720p UkrEng Sub UkrEng [Hurtom].
Format :
Format version : Version 4
File size : 5.32 GiB
Duration : 1 h 48 min
Overall bit rate : 7 022 kb/s
Movie name : Святі з Бундока / The Boondock Saints [Extended Cut] (1999) 720p Ukr/Eng | Sub Ukr/Eng [Hurtom]
Encoded date : UTC 2020-02-18 09:10:09
Writing application : v25.0.0 ('Prog Noir') 64-bit
Writing library : libebml v1.3.6 + v1.4.9
Cover : Yes
Attachments : cover.jpg

Video
ID : 1
Format : AVC
Format/Info : Advanced Video Codec
Format profile : [email protected]
Format settings : CABAC / 12 Ref Frames
Format settings, CABAC : Yes
Format settings, Reference fra : 12 frames
Codec ID : V_MPEG4/ISO/AVC
Duration : 1 h 48 min
Bit rate : 4 741 kb/s
Width : 1 280 pixels
Height : 544 pixels
Display aspect ratio : 2.35:1
Frame rate mode : Constant
Frame rate : 23.976 FPS
Color space : YUV
Chroma subsampling : 4:2:0
Bit depth : 8 bits
Scan type : Progressive
Bits/(Pixel*Frame) : 0.284
Stream size : 3.59 GiB (68%)
Title : The Boondock Saints [Extended Cut] (1999) 720p Ukr/Eng | Sub Ukr/Eng [Hurtom]
Writing library : core 66 r1101M b69548a
Encoding settings : cabac=1 / ref=12 / deblock=1:-3:-3 / analyse=0x3:0x113 / me=umh / subme=9 / psy_rd=1.0:0.0 / mixed_ref=1 / me_range=32 / chroma_me=1 / trellis=0 / 8x8dct=1 / cqm=2 / deadzone=6,4 / chroma_qp_offset=-2 / threads=6 / nr=0 / decimate=0 / mbaff=0 / bframes=3 / b_pyramid=1 / b_adapt=2 / b_bias=0 / direct=3 / wpredb=1 / keyint=240 / keyint_min=24 / scenecut=40(pre) / rc=2pass / bitrate=4741 / ratetol=1.0 / qcomp=0.60 / qpmin=10 / qpmax=51 / qpstep=4 / cplxblur=20.0 / qblur=0.5 / ip_ratio=1.40 / pb_ratio=1.30 / aq=1:1.00
Language : Ukrainian
Default : Yes
Forced : Yes

Audio #1
ID : 2
Format : AC-3
Format/Info : Audio Coding 3
Commercial name : Dolby Digital
Codec ID : A_AC3
Duration : 1 h 48 min
Bit rate mode : Constant
Bit rate : 192 kb/s
Channel(s) : 2 channels
Channel layout : L R
Sampling rate : 48.0 kHz
Frame rate : 31.250 FPS (1536 SPF)
Compression mode : Lossy
Stream size : 149 MiB (3%)
Title : MVO [ICTV] 2.0
Language : Ukrainian
Service kind : Complete Main
Default : Yes
Forced : Yes

Audio #2
ID : 3
Format :
Format/Info : Digital Theater Systems
Codec ID : A_DTS
Duration : 1 h 48 min
Bit rate mode : Constant
Bit rate : 1 509 kb/s
Channel(s) : 6 channels
Channel layout : C L R Ls Rs LFE
Sampling rate : 48.0 kHz
Frame rate : 93.750 FPS (512 SPF)
Bit depth : 24 bits
Compression mode : Lossy
Stream size : 1.14 GiB (21%)
Title : Original 5.1
Language : English
Default : No
Forced : No

Audio #3
ID : 4
Format : AC-3
Format/Info : Audio Coding 3
Commercial name : Dolby Digital
Codec ID : A_AC3
Duration : 1 h 48 min
Bit rate mode : Constant
Bit rate : 192 kb/s
Channel(s) : 2 channels
Channel layout : L R
Sampling rate : 48.0 kHz
Frame rate : 31.250 FPS (1536 SPF)
Compression mode : Lossy
Stream size : 149 MiB (3%)
Title : Original 2.0
Language : English
Service kind : Complete Main
Default : No
Forced : No

Audio #4
ID : 5
Format : AC-3
Format/Info : Audio Coding 3
Commercial name : Dolby Digital
Codec ID : A_AC3
Duration : 1 h 48 min
Bit rate mode : Constant
Bit rate : 192 kb/s
Channel(s) : 2 channels
Channel layout : L R
Sampling rate : 48.0 kHz
Frame rate : 31.250 FPS (1536 SPF)
Compression mode : Lossy
Stream size : 149 MiB (3%)
Title : Original 2.0 | Commentary by Director Troy Duffy
Language : English
Service kind : Complete Main
Default : No
Forced : No

Audio #5
ID : 6
Format : AC-3
Format/Info : Audio Coding 3
Commercial name : Dolby Digital
Codec ID : A_AC3
Duration : 1 h 48 min
Bit rate mode : Constant
Bit rate : 192 kb/s
Channel(s) : 2 channels
Channel layout : L R
Sampling rate : 48.0 kHz
Frame rate : 31.250 FPS (1536 SPF)
Compression mode : Lossy
Stream size : 149 MiB (3%)
Title : Original 2.0 | Commentary by Actor Billy Connolly
Language : English
Service kind : Complete Main
Default : No
Forced : No

Text #1
ID : 7
Format : UTF-8
Codec ID : S_TEXT/UTF8
Codec ID/Info : UTF-8 Plain Text
Duration : 1 h 45 min
Bit rate : 105 b/s
Count of elements : 1398
Stream size : 81.1 KiB (0%)
Title : Ukr (Full)
Language : Ukrainian
Default : No
Forced : No

Text #2
ID : 8
Format : UTF-8
Codec ID : S_TEXT/UTF8
Codec ID/Info : UTF-8 Plain Text
Duration : 1 h 45 min
Bit rate : 64 b/s
Count of elements : 1349
Stream size : 50.0 KiB (0%)
Title : Eng (Full)
Language : English
Default : No
Forced : No

Text #3
ID : 9
Format : UTF-8
Codec ID : S_TEXT/UTF8
Codec ID/Info : UTF-8 Plain Text
Duration : 1 h 45 min
Bit rate : 74 b/s
Count of elements : 1396
Stream size : 57.3 KiB (0%)
Title : Eng (SDH)
Language : English
Default : No
Forced : No

Menu
00:00:00.000 : en:1. A Monster
00:05:33.374 : en:2. Yard Sale
00:08:37.141 : en:3. Strangely Comfortable
00:15:21.295 : en:4. Closure
00:19:22.494 : en:5. Recruitment
00:22:28.680 : en:6. The Funny Man
00:26:34.342 : en:7. Dropping In
00:33:09.862 : en:8. Pay the Toll
00:35:58.573 : en:9. Suit Up
00:40:21.919 : en:10. Call to Duty
00:44:50.896 : en:11. Feed the Dogs
00:49:43.814 : en:12. Just a Bar Fight
00:54:08.495 : en:13. Need a Favor
00:59:01.246 : en:14. Classic Forensics
01:02:58.608 : en:15. St. Patty's Day
01:07:15.698 : en:16. Main Credits/Indifference of Good Men
01:11:27.491 : en:17. Party Crashers
01:17:07.122 : en:18. Armageddon
01:21:29.092 : en:19. Liability
01:26:09.914 : en:20. Advice
01:30:54.407 : en:21. Saint Down
01:33:29.979 : en:22. Entertainment
01:38:53.344 : en:23. Justice
01:43:08.390 : en:24. Saint Hunt/End Credits
Скріншоти
Джерело: &
Висловлюю величезну подяку п. Arsenfpu за звук
Особиста оцінка: 10 - без зайвих вагань рекомендую всім!


З роздачі даного релізу пішов, але сам файл залишається на зберіганні.
Якщо виникне потреба завантажити і нікого не буде на роздачі протягом дня, прохання писати в особисті повідомлення.


Срібний реліз (на рейтинг впливає 50% завантаженого)
 Трекер:    Зареєстрований   

Завантажити / скачати фільм українською



відео для новачків



 Зареєстрований:   2020-02-18 13:28
 Розмір:   5.32 GB 
 Оцінка фільму:   9.9/10 (Голосів: 11)
   
Ваш часовий пояс: GMT + 2 Години

Нова тема   Відповісти