Доктор Ті і його жінки / Dr. T & the Women (2000) AVC Ukr/Eng | sub Eng

Нові коментарі

Нова тема   Відповісти
Автор Повідомлення
Arsenfpu 
Відео Гуртом - фільмокрай
Відео Гуртом - фільмокрай


З нами з: 30.04.09
Востаннє: 05.07.20
Повідомлень: 7038

2020-02-18 06:49  
Доктор Ті і його жінки / Dr. T & the Women (2000) AVC Ukr/Eng | sub Eng

Доктор Ті і його жінки / Dr. T & the Women (2000) AVC Ukr/Eng | sub Eng


Жанр: комедія, драма, романтичний
Країна: США, Німеччина



Кінокомпанія: Artisan Entertainment, Sandcastle 5 Productions
Режисер: Роберт Олтмен
Актори: Річард Гір, Хелен Хант, Феррі Фоусет, Лoра Дерн, Шеллі Лонг, Тара Рейд, Кейт Хадсон, Лів Тайлер, Роберт Хейс, Метт Маллой

Сюжет:
Доля прихильна до своїх улюбленців. Без сумніву. Доктор Тревіс - один з них. Щасливий, багатий гінеколог добився успіху на всіх фронтах. Постійне тісне спілкування з жіночою статтю аж ніяк не зіпсувало його відношення до них. Навпаки, доктор обожнює і звеличує своїх пацієнток. Навколишні дами - кохана дружина, чарівна дочка, чуйні колеги по роботі є світлом його життя. Але одного разу всьому хорошому приходить кінець. Небеса вирішують перевірити на міцність свого улюбленця. Обожнювана робота валиться з рук, дружину неначе підмінили, донька підносить все нові і нові сюрпризи, а сестра перевернула будинок догори дном. Світ занурився в повний хаос, земля йде з під ніг. Несподівана розв'язка стане гідним завершенням підступної долі.


Тривалість: 02:01:53
Якість: AVC
Відео:
кодек:
розмір кадру: 1 024 х 432
бітрейт: 2499 кб/с

Аудіо # 1:
мова: українська
переклад: багатоголосий закадровий
кодек: 2.0
бітрейт: 192 кб/с
примітка: однохвилинний епізод наприкінці фільму, коли на світ з'являється дитинка, залишився без озвучення

Аудіо # 2:
мова: англійська
переклад: оригінал
кодек: 2.0
бітрейт: 192 кб/с

Субтитри:
мова: англійська
тип: програмні (м'які)
формат: *.srt
Про файл
General
Unique ID : 129365610330596432297984673147316034994 (0x6152E907848F0AB8D356BB93F2A75DB2)
Complete name : C:\Dr. T & the Women (2000) [Ukr,Eng] AVC [Hurtom].
Format :
Format version : Version 4 / Version 2
File size : 2.46 GiB
Duration : 2 h 1 min
Overall bit rate : 2 885 kb/s
Movie name : Доктор Ті і його жінки / Dr. T & the Women (2000)
Encoded date : UTC 2020-02-19 22:08:16
Writing application : v21.0.0 ('Tardigrades Will Inherit The Earth') 32-bit
Writing library : libebml v1.3.5 + v1.4.8
Cover : Yes
Attachments : cover.jpg

Video
ID : 1
Format : AVC
Format/Info : Advanced Video Codec
Format profile : [email protected]
Format settings, CABAC : Yes
Format settings, ReFrames : 4 frames
Codec ID : V_MPEG4/ISO/AVC
Duration : 2 h 1 min
Bit rate : 2 499 kb/s
Width : 1 024 pixels
Height : 432 pixels
Display aspect ratio : 2.40:1
Frame rate mode : Constant
Frame rate : 23.976 (24000/1001) FPS
Color space : YUV
Chroma subsampling : 4:2:0
Bit depth : 8 bits
Scan type : Progressive
Bits/(Pixel*Frame) : 0.236
Stream size : 2.13 GiB (87%)
Writing library : core 157 r2935 545de2f
Encoding settings : cabac=1 / ref=3 / deblock=1:-1:-1 / analyse=0x3:0x113 / me=hex / subme=7 / psy=1 / psy_rd=1.00:0.15 / mixed_ref=1 / me_range=16 / chroma_me=1 / trellis=1 / 8x8dct=1 / cqm=0 / deadzone=21,11 / fast_pskip=1 / chroma_qp_offset=-3 / threads=12 / lookahead_threads=2 / sliced_threads=0 / nr=0 / decimate=1 / interlaced=0 / bluray_compat=0 / constrained_intra=0 / bframes=3 / b_pyramid=2 / b_adapt=1 / b_bias=0 / direct=1 / weightb=1 / open_gop=0 / weightp=2 / keyint=240 / keyint_min=23 / scenecut=40 / intra_refresh=0 / rc_lookahead=40 / rc=2pass / mbtree=1 / bitrate=2499 / ratetol=1.0 / qcomp=0.60 / qpmin=0 / qpmax=69 / qpstep=4 / cplxblur=20.0 / qblur=0.5 / ip_ratio=1.40 / aq=1:1.00
Default : Yes
Forced : No

Audio #1
ID : 2
Format : AC-3
Format/Info : Audio Coding 3
Mode extension : CM (complete main)
Format settings, Endianness : Big
Codec ID : A_AC3
Duration : 2 h 1 min
Bit rate mode : Constant
Bit rate : 192 kb/s
Channel(s) : 2 channels
Channel positions : Front: L R
Sampling rate : 48.0 kHz
Frame rate : 31.250 FPS (1536 spf)
Compression mode : Lossy
Stream size : 167 MiB (7%)
Title : Інтер
Language : Ukrainian
Default : Yes
Forced : Yes

Audio #2
ID : 3
Format : AC-3
Format/Info : Audio Coding 3
Mode extension : CM (complete main)
Format settings, Endianness : Big
Codec ID : A_AC3
Duration : 2 h 1 min
Bit rate mode : Constant
Bit rate : 192 kb/s
Channel(s) : 2 channels
Channel positions : Front: L R
Sampling rate : 48.0 kHz
Frame rate : 31.250 FPS (1536 spf)
Compression mode : Lossy
Stream size : 167 MiB (7%)
Language : English
Default : No
Forced : No

Text
ID : 4
Format : UTF-8
Codec ID : S_TEXT/UTF8
Codec ID/Info : UTF-8 Plain Text
Duration : 2 h 0 min
Bit rate : 85 b/s
Count of elements : 1787
Stream size : 76.0 KiB (0%)
Language : English
Default : Yes
Forced : No
Скріншоти














Джерело:
Особиста оцінка: не дивився


Срібний реліз (на рейтинг впливає 50% завантаженого)
 Трекер:    Зареєстрований   

Завантажити / скачати фільм українською



відео для новачків



 Зареєстрований:   2020-02-20 01:43
 Розмір:   2.46 GB 
 Оцінка фільму:   8.4/10 (Голосів: 14)
   
bot 
робот


З нами з: 30.09.07
Востаннє: 26.05.05
Повідомлень: 24971

2020-02-20 01:43  
Тему перенесено з Анонси релізів до форуму Фільми


Arsenfpu

opa79 
Свій


З нами з: 01.12.11
Востаннє: 30.06.20
Повідомлень: 98

2020-03-05 12:42  
Це - що завгодно, тільки не комедія. Дві години, марно витрачені на перегляд того, що можна було б показати за годину максимум. І зірковий склад не рятує. 2 з 10.
don pedro 
Попереджень: 1
Попереджень: 1 


З нами з: 29.06.11
Востаннє: 05.07.20
Повідомлень: 17127

2020-03-05 13:41  
Розкішний фільм. Головний герой і в Мексиці не пропав - ось що значить бути профіHappy
Djohnnikey 
VIP


З нами з: 01.10.15
Востаннє: 05.07.20
Повідомлень: 388

2020-03-24 22:33  
don pedro: "Головний герой і в Мексиці не пропав", - судячі за все його не в Мексику віднесло (Даллас знаходиться на кордоні з Оклахомою, а не з Нуево-Леон). Як я розумію, він просто потрапив у поселення нелегалів, які (ЩО?) для чогось живуть у пустелі далеко від міста, але у яких є фонтан серед трейлерів.

Як помітив opa79, це на 100 відсотків не комедія. Взагалі тривалий час (десь перші півтори години фільму) мені здавалося, що нам показують просто звичайні будні лікаря. Тобто він не потрапляв у якісь ситуації, де треба було себе проявити. Це просто було його життя, за виключенням того, що дружина якось одномоментно з'їхала з ґлузду (хоча оточуючих це не особливо хвилює).
Фільм дуже повільний й дуже затягнутий. А головне - позбавлений логіки. Наприклад доньки, щоб поговорити з татусем на одинці не чекають на нього вдома, а йдуть у лікарню, тягнучи з собою кузин, тітку та другу сестру. Донька Діді - "логічна" у всьому: шикарний момент, коли вона бере телефон на тренування (перше тренування в новому колективі, де вона хоче себе проявити), знаючі що телефони там заборонені. Бере вона телефон для того, щоб повідомити сестрі, що свідком на весіллі буде інша тітка. Що заважало повідомити цю інформацію особисто, або до чи після тренування? Нічого. Просто інакше Діді довелося б брати у групу підтримки, й це б позбавило одного з конфліктів.
Згадувати можна багато чого. Наприклад чому на одного лікаря працює 10 медсестер та до нього завжди черга з 15 людей - запису взагалі немає?
Але найбільш шикарне весілля й лінія з ним. Адже з нареченим ми знайомимося лише у фінальній сцені - з ним нічого не обговорювали, він не вирішував де саме будуть одружуватися, й, схоже, знав, менше за тітку нареченої. Чому? Тільки тому, що в фільмі має бути один чоловік, й то роль Гіра. Навіть коли нареченого кидають перед вівтарем - йому не говорять ані слова (тільки татусю). Навіщо Діді взагалі збиралася на ньому одружитися, якщо цього від неї ніхто не вимагав, а сама вона була закохана у свою подругу? Жодного причинно-наслідкового зв'язку.
Цей фільм має хоча б якісь ґлузд, якщо сенсом його створення був месседж: "Жінки вас завжди підставлять, на них надії немає". Якщо сенс був в чомусь іншому, то цей сенс автори донести не змогли (хоча часу в них було наддостатньо)
2 з 10 (обидва бали за Гіра).

Ваш часовий пояс: GMT + 2 Години

Нова тема   Відповісти