Паразити / Parasite / Gisaengchung / 기생충 (2019) 1080p H.265 Ukr/Kor | Sub Eng/Fre

Нові коментарі

Нова тема   Відповісти
Автор Повідомлення
Anonymous 







2020-02-18 01:33  
Паразити / Parasite / Gisaengchung / 기생충 (2019) 1080p H.265 Ukr/Kor | Sub Eng/Fre

Паразити / Parasite / Gisaengchung / 기생충 (2019) 1080p H.265 Ukr/Kor | Sub Eng/Fre


Жанр: драма, трагікомедія, трилер
Країна: Південна Корея
Кінокомпанія: CJ Entertainment
Режисер: Пон Джун Хо / Bong Joon Ho
Актори: Сон Кан Хо / Song Kang-ho, Лі Сон Гюн / Lee Sun-kyun, Чо Йо Чон / Cho Yeo-jeong, Чхве У Сік / Choi Woo-shik, Пак Со Дам / Park So-dam, Чан Хє Джин / Chang Hyae-jin, Лі Чон Ин / Lee Jung-eun, Пак Мьон Хун / Park Myung-hoon, Чон Чі Со / Jeong Ji-so та інші

Сюжет:
У сім'ї чотирьох безробітних похмурі життєві перспективи. Ситуація змінюється, коли старшому синові пропонують високооплачуваний підробіток репетитором. З допомогою сестри він робить фальшиві документи про освіту та приходить до розкішного маєтку заможного бізнесмена. Справивши гарне враження, старший син дізнається про ще одну відкриту вакансію, і у нього з'являється дуже незвичайний план з працевлаштування сестри.

Тривалість: 02:12:00
Якість:

Відео:
кодек: H.265 (HEVC)
розмір кадру: 1920 x 804
бітрейт: 7 147 кб/с
бітова глибина: 10 біт

Увага! Перед завантаженням переконайтесь, що ваш пристрій відтворення (та/або ПЗ) підтримує H.265 (HEVC)

Аудіо # 1:
мова: українська
переклад: багатоголосий закадровий
кодек: AC-3 2.0
бітрейт: 192 кб/с

Аудіо # 2:
мова: корейська
переклад: оригінал
кодек: 5.1
бітрейт: 1510 кб/с

Субтитри # 1: (Forced)
мова: українська
тип: програмні (м'які)
формат: *.srt

Субтитри # 2: (Full)
мова: англійська
тип: програмні (м'які)
формат: *.srt

Субтитри # 3: (Full)
мова: французька
тип: програмні (м'які)
формат: *.srt


Info
Код:
General
Unique ID                                : 218659573208149149506325035484828722167 (0xA4804D4DB314698845AED0CB0864E3F7)
Complete name                            : Gisaengchung (2019) 1080p H.265 [UKR_KOR] [Hurtom].
Format                                   :
Format version                           : Version 4
File size                                : 8.16 GiB
Duration                                 : 2 h 12 min
Overall bit rate                         : 8 851 kb/s
Movie name                               : Паразити / Parasite / Gisaengchung (2019)
Encoded date                             : UTC 2020-02-17 23:55:13
Writing application                      : v20.0.0 ('I Am The Sun') 64-bit
Writing library                          : libebml v1.3.5 + v1.4.8
Cover                                    : Yes
Attachments                              : Cover.jpg

Video
ID                                       : 1
Format                                   : HEVC
Format/Info                              : High Efficiency Video Coding
Format profile                           : Main [email protected]@High
Codec ID                                 : V_MPEGH/ISO/HEVC
Duration                                 : 2 h 12 min
Bit rate                                 : 7 147 kb/s
Width                                    : 1 920 pixels
Height                                   : 804 pixels
Display aspect ratio                     : 2.40:1
Frame rate mode                          : Constant
Frame rate                               : 23.976 (24000/1001) FPS
Color space                              : YUV
Chroma subsampling                       : 4:2:0
Bit depth                                : 10 bits
Bits/(Pixel*Frame)                       : 0.193
Stream size                              : 6.59 GiB (81%)
Title                                    : Паразити / Parasite / Gisaengchung (2019)
Writing library                          : x265 3.2+5-354901970679:[Windows][clang 8.0.1][64 bit] 10bit
Encoding settings                        : cpuid=1049583 / frame-threads=5 / numa-pools=4 / wpp / no-pmode / no-pme / no-psnr / no-ssim / log-level=3 / input-csp=1 / input-res=1920x804 / interlace=0 / total-frames=0 / level-idc=41 / high-tier=1 / uhd-bd=0 / ref=5 / allow-non-conformance / no-repeat-headers / annexb / no-aud / no-hrd / info / hash=0 / no-temporal-layers / open-gop / min-keyint=24 / keyint=240 / gop-lookahead=0 / bframes=12 / b-adapt=2 / b-pyramid / bframe-bias=0 / rc-lookahead=40 / lookahead-slices=5 / scenecut=40 / radl=0 / no-splice / no-intra-refresh / ctu=32 / min-cu-size=8 / no-rect / no-amp / max-tu-size=32 / tu-inter-depth=4 / tu-intra-depth=4 / limit-tu=1 / rdoq-level=1 / dynamic-rd=0.00 / no-ssim-rd / signhide / no-tskip / nr-intra=0 / nr-inter=0 / no-constrained-intra / no-strong-intra-smoothing / max-merge=5 / limit-refs=1 / no-limit-modes / me=3 / subme=7 / merange=57 / temporal-mvp / no-frame-dup / no-hme / weightp / no-weightb / no-analyze-src-pics / deblock=-3:-3 / no-sao / no-sao-non-deblock / rd=3 / selective-sao=0 / early-skip / no-rskip / no-fast-intra / no-tskip-fast / no-cu-lossless / b-intra / no-splitrd-skip / rdpenalty=0 / psy-rd=2.00 / psy-rdoq=1.00 / no-rd-refine / no-lossless / cbqpoffs=0 / crqpoffs=0 / rc=crf / crf=20.0 / qcomp=0.60 / qpstep=4 / stats-write=0 / stats-read=0 / vbv-maxrate=50000 / vbv-bufsize=50000 / vbv-init=0.9 / crf-max=0.0 / crf-min=0.0 / ipratio=1.40 / pbratio=1.30 / aq-mode=3 / aq-strength=1.00 / no-cutree / zone-count=0 / no-strict-cbr / qg-size=32 / no-rc-grain / qpmax=69 / qpmin=0 / no-const-vbv / sar=1 / overscan=0 / videoformat=5 / range=0 / colorprim=1 / transfer=1 / colormatrix=1 / chromaloc=0 / display-window=0 / cll=0,0 / min-luma=0 / max-luma=1023 / log2-max-poc-lsb=8 / vui-timing-info / vui-hrd-info / slices=1 / no-opt-qp-pps / no-opt-ref-list-length-pps / no-multi-pass-opt-rps / scenecut-bias=0.05 / no-opt-cu-delta-qp / no-aq-motion / no-hdr / no-hdr-opt / no-dhdr10-opt / no-idr-recovery-sei / analysis-reuse-level=5 / scale-factor=0 / refine-intra=0 / refine-inter=0 / refine-mv=1 / refine-ctu-distortion=0 / no-limit-sao / ctu-info=0 / no-lowpass-dct / refine-analysis-type=0 / copy-pic=1 / max-ausize-factor=1.0 / no-dynamic-refine / no-single-sei / no-hevc-aq / no-svt / no-field / qp-adaptation-range=1.00
Language                                 : Korean
Default                                  : Yes
Forced                                   : No
Color range                              : Limited
Color primaries                          : BT.709
Transfer characteristics                 : BT.709
Matrix coefficients                      : BT.709

Audio #1
ID                                       : 2
Format                                   : AC-3
Format/Info                              : Audio Coding 3
Commercial name                          : Dolby Digital
Codec ID                                 : A_AC3
Duration                                 : 2 h 12 min
Bit rate mode                            : Constant
Bit rate                                 : 192 kb/s
Channel(s)                               : 2 channels
Channel layout                           : L R
Sampling rate                            : 48.0 kHz
Frame rate                               : 31.250 FPS (1536 SPF)
Compression mode                         : Lossy
Stream size                              : 181 MiB (2%)
Title                                    : / 2.0 Ch / 192 kbps / ПД / iTunes
Language                                 : Ukrainian
Service kind                             : Complete Main
Default                                  : Yes
Forced                                   : Yes

Audio #2
ID                                       : 3
Format                                   :
Format/Info                              : Digital Theater Systems
Codec ID                                 : A_DTS
Duration                                 : 2 h 12 min
Bit rate mode                            : Constant
Bit rate                                 : 1 509 kb/s
Channel(s)                               : 6 channels
Channel layout                           : C L R Ls Rs LFE
Sampling rate                            : 48.0 kHz
Frame rate                               : 93.750 FPS (512 SPF)
Bit depth                                : 24 bits
Compression mode                         : Lossy
Stream size                              : 1.39 GiB (17%)
Title                                    : / 5.1 Ch / 1509 kbps / Original
Language                                 : Korean
Default                                  : No
Forced                                   : No

Text #1
ID                                       : 4
Format                                   : UTF-8
Codec ID                                 : S_TEXT/UTF8
Codec ID/Info                            : UTF-8 Plain Text
Duration                                 : 1 h 51 min
Bit rate                                 : 0 b/s
Count of elements                        : 6
Stream size                              : 450 Bytes (0%)
Title                                    : Forced
Language                                 : Ukrainian
Default                                  : Yes
Forced                                   : Yes

Text #2
ID                                       : 5
Format                                   : UTF-8
Codec ID                                 : S_TEXT/UTF8
Codec ID/Info                            : UTF-8 Plain Text
Duration                                 : 2 h 5 min
Bit rate                                 : 53 b/s
Count of elements                        : 1647
Stream size                              : 49.3 KiB (0%)
Title                                    : Full
Language                                 : English
Default                                  : No
Forced                                   : No

Text #3
ID                                       : 6
Format                                   : UTF-8
Codec ID                                 : S_TEXT/UTF8
Codec ID/Info                            : UTF-8 Plain Text
Duration                                 : 2 h 10 min
Bit rate                                 : 52 b/s
Count of elements                        : 1774
Stream size                              : 49.9 KiB (0%)
Title                                    : Full
Language                                 : French
Default                                  : No
Forced                                   : No

Menu
00:00:00.000                             : :Chapter 1
00:05:44.802                             : :Chapter 2
00:12:16.610                             : :Chapter 3
00:20:35.484                             : :Chapter 4
00:29:21.926                             : :Chapter 5
00:37:05.348                             : :Chapter 6
00:46:19.943                             : :Chapter 7
00:53:52.979                             : :Chapter 8
01:02:55.646                             : :Chapter 9
01:12:10.242                             : :Chapter 10
01:23:25.834                             : :Chapter 11
01:32:19.659                             : :Chapter 12
01:41:22.284                             : :Chapter 13
01:48:21.912                             : :Chapter 14
01:56:07.502                             : :Chapter 15
02:07:06.744                             : :Chapter 16
Світлини




Джерело: &
Особиста оцінка: 10 - без зайвих вагань рекомендую всім!


 Трекер:    Зареєстрований   

Завантажити / скачати фільм українською



відео для новачків



 Зареєстрований:   2020-02-18 02:58
 Розмір:   8.16 GB 
 Оцінка фільму:   8.6/10 (Голосів: 18)
   
bot 
робот


З нами з: 30.09.07
Востаннє: 26.05.05
Повідомлень: 25603

2020-02-18 01:33  
Тему перенесено з Фільми в HD до форуму Анонси релізів


-Star-Lord-

bot 
робот


З нами з: 30.09.07
Востаннє: 26.05.05
Повідомлень: 25603

2020-02-18 02:58  
Тему перенесено з Анонси релізів до форуму Фільми в HD


-Star-Lord-

lpershyi 
Забанено
Забанено


З нами з: 04.01.11
Востаннє: 29.08.20
Повідомлень: 2865

2020-02-18 03:07  
Цитата:
Gisaengchung (2019)
Якщо вже це, чому тоді не написали офіційну назву 기생충 та правильний український переклад х/ф Паразит?
vash1 
VIP


З нами з: 16.03.16
Востаннє: 24.09.20
Повідомлень: 265

2020-02-19 22:20  
Дубльований!! Ого Happy
libracinema 
Частий відвідувач


З нами з: 27.10.17
Востаннє: 24.09.20
Повідомлень: 28

2020-02-22 13:33  
Доріжка не дубльована, переклад закадровий. Виправте.
[Captain] 
Попереджень: 1
Попереджень: 1 


З нами з: 19.02.12
Востаннє: 25.09.20
Повідомлень: 2330

2020-05-13 18:47  
Дуже цікавий фільм. Радий, що не тільки американське кіно наразі здатне стати фільмом року.
Ваш часовий пояс: GMT + 2 Години

Нова тема   Відповісти