Родина Адамсів / The Addams Family (2019) Remux 1080p Ukr/Eng | Sub Eng

Нові коментарі

Нова тема   Відповісти
Автор Повідомлення
Anonymous 







2020-02-17 14:50  
Родина Адамсів / The Addams Family (2019) Remux 1080p Ukr/Eng | Sub Eng

Родина Адамсів / The Addams Family (2019) Remux 1080p Ukr/Eng | Sub Eng


Жанр: анімація, комедія, сімейний
Країна: США, Велика Британія, Канада



Кінокомпанія: Metro-Goldwyn-Mayer (MGM), Cinesite Animation, BRON Studios
Режисер: Конрад Вернон, Ґреґ Тірнан
Актори: Оскар Айзек Шарліз Терон Хлоя Ґрейс Морец Фінн Вулфгард Нік Кролл Снуп Доґґ Бетт Мідлер

Сюжет:
У нове містечко переїхала вельми незвичайна сімейка. За всіма характеристиками вони відрізняються від середньостатистичних мам, тат і діточок. Цю сімейку звуть Аддамс. Вони найбільше цінують сіру та дощову погоду, у захваті від чорного кольору, а діти обожнюють грати з ризиком для життя. Усе це робить їх особливими та несхожими на інших. На жаль, інші люди поки не дуже раді новому дивному сусідству. Старша дочка сімейства на ім'я Венсдей повинна ходити до місцевої школи. Більшість дітей обходить її стороною, але одну подругу дівчинка все-таки собі знайшли. Вони мило спілкувалися та багато чому навчили один одного, а ось їхні батьки не в захваті від такого спілкування... Ви точно не зустрінете більше цікавих сусідів, ніж сімейка Адамсів!


Тривалість: 01:27:01
Якість: Remux 1080p

Відео:
кодек:
розмір кадру: 1920x1080
бітрейт: 29,3 мб/с

Аудіо # 1:
мова: українська
переклад: професійний дубльований
кодек: 5.1
бітрейт: 384 кб/с

Аудіо # 2:
мова: українська
переклад: професійний дубльований
кодек: 2.0
бітрейт: 192 кб/с

Аудіо # 3:
мова: англійська
переклад: оригінал
кодек: -HD MA 7.1
бітрейт: 4319 кб/с

Субтитри # 1: (Forced)
мова: українська
тип: програмні (м'які)
формат: *.srt

Субтитри # 2-3: (Full, SDH)
мова: англійська
тип: програмні (м'які)
формат: *.srt
Info
Код:
General
Complete name                            : The Addams Family (2019) Remux 1080p [Ukr, Eng] [Hurtom].
Format                                   :
Format version                           : Version 4
File size                                : 20.8 GiB
Duration                                 : 1 h 27 min
Overall bit rate mode                    : Variable
Overall bit rate                         : 34.2 Mb/s
Encoded date                             : UTC 2020-02-27 19:04:57
Writing application                      : v30.1.0 ('Forever And More') 64-bit
Writing library                          : libebml v1.3.6 + v1.4.9
Cover                                    : Yes
Attachments                              : cover.jpg

Video
ID                                       : 1
Format                                   : AVC
Format/Info                              : Advanced Video Codec
Format profile                           : [email protected]
Format settings                          : CABAC / 2 Ref Frames
Format settings, CABAC                   : Yes
Format settings, RefFrames               : 2 frames
Codec ID                                 : V_MPEG4/ISO/AVC
Duration                                 : 1 h 27 min
Bit rate mode                            : Variable
Bit rate                                 : 29.3 Mb/s
Width                                    : 1 920 pixels
Height                                   : 1 080 pixels
Display aspect ratio                     : 16:9
Frame rate mode                          : Constant
Frame rate                               : 23.976 (24000/1001) FPS
Color space                              : YUV
Chroma subsampling                       : 4:2:0
Bit depth                                : 8 bits
Scan type                                : Progressive
Bits/(Pixel*Frame)                       : 0.589
Stream size                              : 17.8 GiB (86%)
Language                                 : English
Default                                  : Yes
Forced                                   : No

Audio #1
ID                                       : 2
Format                                   : AC-3
Format/Info                              : Audio Coding 3
Commercial name                          : Dolby Digital
Codec ID                                 : A_AC3
Duration                                 : 1 h 27 min
Bit rate mode                            : Constant
Bit rate                                 : 384 kb/s
Channel(s)                               : 6 channels
Channel layout                           : L R C LFE Ls Rs
Sampling rate                            : 48.0 kHz
Frame rate                               : 31.250 FPS (1536 SPF)
Bit depth                                : 16 bits
Compression mode                         : Lossy
Stream size                              : 239 MiB (1%)
Title                                    : , 5.1 384 Kbps
Language                                 : Ukrainian
Service kind                             : Complete Main
Default                                  : Yes
Forced                                   : No

Audio #2
ID                                       : 3
Format                                   : AC-3
Format/Info                              : Audio Coding 3
Commercial name                          : Dolby Digital
Codec ID                                 : A_AC3
Duration                                 : 1 h 27 min
Bit rate mode                            : Constant
Bit rate                                 : 192 kb/s
Channel(s)                               : 2 channels
Channel layout                           : L R
Sampling rate                            : 48.0 kHz
Frame rate                               : 31.250 FPS (1536 SPF)
Bit depth                                : 16 bits
Compression mode                         : Lossy
Stream size                              : 119 MiB (1%)
Title                                    : , 2.0, 192 Kbps
Language                                 : Ukrainian
Service kind                             : Complete Main
Default                                  : No
Forced                                   : No

Audio #3
ID                                       : 4
Format                                   : XLL
Format/Info                              : Digital Theater Systems
Commercial name                          : -HD Master Audio
Codec ID                                 : A_DTS
Duration                                 : 1 h 27 min
Bit rate mode                            : Variable
Bit rate                                 : 4 319 kb/s
Channel(s)                               : 8 channels
Channel layout                           : C L R LFE Lb Rb Lss Rss
Sampling rate                            : 48.0 kHz
Frame rate                               : 93.750 FPS (512 SPF)
Bit depth                                : 24 bits
Compression mode                         : Lossless
Stream size                              : 2.63 GiB (13%)
Title                                    : -HD MA, 7.1, 4319 Kbps
Language                                 : English
Default                                  : No
Forced                                   : No

Text #1
ID                                       : 5
Format                                   : UTF-8
Codec ID                                 : S_TEXT/UTF8
Codec ID/Info                            : UTF-8 Plain Text
Duration                                 : 1 h 19 min
Bit rate                                 : 1 b/s
Count of elements                        : 25
Stream size                              : 775 Bytes (0%)
Title                                    : Forced
Language                                 : Ukrainian
Default                                  : Yes
Forced                                   : No

Text #2
ID                                       : 6
Format                                   : UTF-8
Codec ID                                 : S_TEXT/UTF8
Codec ID/Info                            : UTF-8 Plain Text
Duration                                 : 1 h 25 min
Bit rate                                 : 69 b/s
Count of elements                        : 1436
Stream size                              : 43.3 KiB (0%)
Title                                    : Full
Language                                 : English
Default                                  : No
Forced                                   : No

Menu
00:00:00.000                             : :Chapter 01
00:05:08.558                             : :Chapter 02
00:10:35.468                             : :Chapter 03
00:15:46.946                             : :Chapter 04
00:19:35.257                             : :Chapter 05
00:25:14.805                             : :Chapter 06
00:29:25.764                             : :Chapter 07
00:34:20.558                             : :Chapter 08
00:39:46.968                             : :Chapter 09
00:45:01.741                             : :Chapter 10
00:49:07.611                             : :Chapter 11
00:53:40.926                             : :Chapter 12
00:56:36.560                             : :Chapter 13
01:00:01.014                             : :Chapter 14
01:03:45.947                             : :Chapter 15
01:06:02.458                             : :Chapter 16
01:10:54.584                             : :Chapter 17
01:18:09.476                             : :Chapter 18
01:20:21.316                             : :Chapter 19
01:21:11.325                             : :Chapter 20
Світлини


Джерело: &
Особиста оцінка: 6 - третій сорт - не брак


Золотий реліз (завантажене не впливає на рейтинг)
 Трекер:    Зареєстрований   

Завантажити / скачати мультфільм українською



відео для новачків



 Зареєстрований:   2020-02-28 00:09
 Розмір:   20.79 GB 
 Оцінка мультфільму:   9.3/10 (Голосів: 20)
   
Інші релізи
   Родина Адамсів / The Addams Family (2019) Jatx_11  34 / 0   1.42 GB   2020-05-13 13:51 
   Родина Адамсів / The Addams Family (2019) 1080p Ukr/Eng | Sub Eng -Star-Lord-  25 / 0   9.38 GB   2020-02-28 00:46 
   Родина Адамсів / The Addams Family (2019) 720p Ukr/Eng | Eng staf777  21 / 0   4.95 GB   2020-02-27 20:41 
   Родина Адамсів / The Addams Family (2019) AVC Ukr/Eng | Eng staf777  42 / 0   1.9 GB   2020-02-27 19:22 
Anonymous 







2020-02-28 00:10  
Додав доріжку на 5.1 
Ваш часовий пояс: GMT + 2 Години

Нова тема   Відповісти