Друзяки з джунглів. Повернення на крижину / The Jungle Bunch: Back to the Ice Floe (2011) DVBRip-AVC

Нові коментарі

Нова тема   Відповісти
Автор Повідомлення
sergiyko.5 
VIP


З нами з: 25.02.16
Востаннє: 23.10.20
Повідомлень: 3611

2020-02-16 22:23  
Друзяки з джунглів. Повернення на крижину / The Jungle Bunch: Back to the Ice Floe (2011) DVBRip-AVC


Друзяки з джунглів. Повернення на крижину / The Jungle Bunch: Back to the Ice Floe (2011) DVBRip-AVC

Жанр: Пригоди, комедія
Країна: Франція
Кінокомпанія: PGS Entertainment
Режисер: Девід Алаукс

Сюжет:
Наш знайомий пінгвін Мауріс без пригод дуже нудьгує. Цього разу він знову організовує команду зі своїх старих друзів для допомоги усім, хто потрапив до халепи у джунглях. От тільки, здається, допомога потрібна самим рятівникам. Бо, наприклад, кажан Беатріс страшенно боїться темряви, а жабеня Фред так любить співати, що не може помовчати й хвилини. Кумедна горила Мігель обожнює різноманітні жарти та розіграші. Разом вони – команда порятунку джунглів! Хто б не звернувся до них із проханням – чуйні та добрі серця тваринок завжди прийдуть на допомогу.


Тривалість: 00:53:57
Якість: DVBRip

Відео: кодек: розмір кадру: 1024 х 560 бітрейт: 1500 кб/с
Аудіо: мова: українська переклад: багатоголосий закадровий кодек: 2.0 бітрейт: 192 кб/с
Озвучення:
Про файл:
General
Unique ID : 323200488598758853621760294761277353584 (0xF32626600FEF2F8A7364FF95213AEE70)
Complete name : D:\Documents\Torrents\MULTSER_2\The Jungle Bunch Back to the Ice Floe.2011.DVBRip.
Format :
Format version : Version 4
File size : 661 MiB
Duration : 53 min 56 s
Overall bit rate : 1 714 kb/s
Movie name : rip by sergiyko
Encoded date : UTC 2020-02-16 19:19:44
Writing application : v42.0.0 ('Overtime') 64-bit
Writing library : libebml v1.3.10 + v1.5.2

Video
ID : 1
Format : AVC
Format/Info : Advanced Video Codec
Format profile : [email protected]
Format settings : CABAC / 8 Ref Frames
Format settings, CABAC : Yes
Format settings, Reference : 8 frames
Codec ID : V_MPEG4/ISO/AVC
Duration : 53 min 56 s
Bit rate : 1 520 kb/s
Width : 1 024 pixels
Height : 560 pixels
Display aspect ratio : 1.85:1
Frame rate mode : Constant
Frame rate : 25.000 FPS
Color space : YUV
Chroma subsampling : 4:2:0
Bit depth : 8 bits
Scan type : Progressive
Bits/(Pixel*Frame) : 0.106
Stream size : 586 MiB (89%)
Writing library : core 157 r2969 d4099dd
Encoding settings : cabac=1 / ref=8 / deblock=1:0:0 / analyse=0x3:0x133 / me=umh / subme=9 / psy=1 / psy_rd=0.40:0.00 / mixed_ref=1 / me_range=24 / chroma_me=1 / trellis=2 / 8x8dct=1 / cqm=0 / deadzone=21,11 / fast_pskip=1 / chroma_qp_offset=-2 / threads=17 / lookahead_threads=4 / sliced_threads=0 / nr=0 / decimate=1 / interlaced=0 / bluray_compat=0 / constrained_intra=0 / bframes=12 / b_pyramid=2 / b_adapt=2 / b_bias=0 / direct=3 / weightb=1 / open_gop=0 / weightp=2 / keyint=250 / keyint_min=25 / scenecut=40 / intra_refresh=0 / rc_lookahead=60 / rc=crf / mbtree=1 / crf=19.0 / qcomp=0.60 / qpmin=0 / qpmax=69 / qpstep=4 / ip_ratio=1.40 / aq=1:0.60
Language : English
Default : Yes
Forced : No

Audio
ID : 2
Format : MPEG Audio
Format version : Version 1
Format profile : Layer 2
Format settings : Joint stereo / Intensity Stereo + MS Stereo
Codec ID : A_MPEG/L2
Codec ID/Hint : MP2
Duration : 53 min 56 s
Bit rate mode : Constant
Bit rate : 192 kb/s
Channel(s) : 2 channels
Sampling rate : 48.0 kHz
Frame rate : 41.667 FPS (1152 SPF)
Compression mode : Lossy
Delay relative to video : 80 ms
Stream size : 74.1 MiB (11%)
Language : Ukrainian
Default : Yes
Forced : No
Скріншоти:


Запис/ріп: sergiyko


 Трекер:    Зареєстрований   

Завантажити / скачати мультфільм українською



відео для новачків



 Зареєстрований:   2020-02-16 22:23
 Розмір:   661 MB 
 Оцінка мультфільму:   9.7/10 (Голосів: 6)
   
Ваш часовий пояс: GMT + 2 Години

Нова тема   Відповісти