Ману / Manou the Swift (2019) AVC Ukr/Eng | sub Eng

Нові коментарі

Нова тема   Відповісти
Автор Повідомлення
Arsenfpu 
Відео Гуртом - фільмокрай
Відео Гуртом - фільмокрай


З нами з: 30.04.09
Востаннє: 30.10.20
Повідомлень: 7365

2020-02-16 15:21  
Ману / Manou the Swift (2019) AVC Ukr/Eng | sub Eng

Ману / Manou the Swift (2019) AVC Ukr/Eng | sub Eng


Жанр: анімація, пригодницький, комедія
Країна: Німеччина



Кінокомпанія: LUXX Film
Режисер: Крістіан Хаас, Андреа Блок
Ролі озвучують: Фрідріх Мюке, Кассандра Стін, Олівер Калькофе, Ульріке Штурцбехер, Домінік Кун, Джулі Натансон, Сонні Дей, Маріанн Келлі, Симон Брендель, Моріц Брендел

Сюжет:
Стриж Ману зростає в сім'ї чайок і щосили намагається навчитися плавати, ловити рибу і літати так само, як і вони. Але під час традиційного літнього змагання він розуміє, що ніколи не зможе стати чайкою. Розсерджений Ману відлітає з дому, де зустрічає нових друзів. Через це псуються його стосунки з рідною зграєю. Але тут в справу втручається випадок. Ману, який виріс відважним як чайка і винахідливим як стриж, вдається вберегти і чайок, і стрижів від небезпеки, що насувається і стати героєм в очах і тих і інших


Тривалість: 01:28:36
Якість:
Відео:
кодек:
розмір кадру: 1 024 х 576
бітрейт: 2 135 кб/с

Аудіо # 1:
мова: українська
переклад: професійний дубльований
кодек: 2.0
бітрейт: 192 кб/с

Аудіо # 2:
мова: англійська
переклад: оригінал
кодек: 2.0
бітрейт: 192 кб/с

Субтитри:
мова: англійська
тип: програмні (м'які)
формат: *.srt
Скріншоти














Про файл
General
Unique ID : 314460027504087675668839733111900974628 (0xEC92CC5F3E412C857F13264AF0CDAE24)
Complete name : C:\Manou the Swift (2019) [Ukr,Eng] AVC [Hurtom].
Format :
Format version : Version 4 / Version 2
File size : 1.56 GiB
Duration : 1 h 28 min
Overall bit rate : 2 516 kb/s
Movie name : Ману / Manou the Swift (2019)
Encoded date : UTC 2020-02-16 12:55:17
Writing application : v21.0.0 ('Tardigrades Will Inherit The Earth') 32-bit
Writing library : libebml v1.3.5 + v1.4.8
Cover : Yes
Attachments : cover.jpg

Video
ID : 1
Format : AVC
Format/Info : Advanced Video Codec
Format profile : [email protected]
Format settings, CABAC : Yes
Format settings, ReFrames : 10 frames
Codec ID : V_MPEG4/ISO/AVC
Duration : 1 h 28 min
Bit rate : 2 135 kb/s
Width : 1 024 pixels
Height : 576 pixels
Display aspect ratio : 16:9
Frame rate mode : Constant
Frame rate : 24.000 FPS
Color space : YUV
Chroma subsampling : 4:2:0
Bit depth : 8 bits
Scan type : Progressive
Bits/(Pixel*Frame) : 0.151
Stream size : 1.32 GiB (85%)
Writing library : core 146 r2538 121396c
Encoding settings : cabac=1 / ref=10 / deblock=1:-3:-3 / analyse=0x3:0x113 / me=umh / subme=11 / psy=1 / psy_rd=1.00:0.03 / mixed_ref=1 / me_range=48 / chroma_me=1 / trellis=2 / 8x8dct=1 / cqm=0 / deadzone=21,11 / fast_pskip=1 / chroma_qp_offset=-6 / threads=6 / lookahead_threads=1 / sliced_threads=0 / nr=0 / decimate=1 / interlaced=0 / bluray_compat=0 / constrained_intra=0 / bframes=11 / b_pyramid=2 / b_adapt=2 / b_bias=0 / direct=3 / weightb=1 / open_gop=0 / weightp=2 / keyint=240 / keyint_min=24 / scenecut=40 / intra_refresh=0 / rc_lookahead=40 / rc=2pass / mbtree=0 / bitrate=2135 / ratetol=1.0 / qcomp=0.60 / qpmin=0 / qpmax=69 / qpstep=4 / cplxblur=20.0 / qblur=0.5 / vbv_maxrate=50000 / vbv_bufsize=62500 / nal_hrd=none / filler=0 / ip_ratio=1.40 / pb_ratio=1.30 / aq=1:1.00
Language : English
Default : Yes
Forced : No

Audio #1
ID : 2
Format : AC-3
Format/Info : Audio Coding 3
Mode extension : CM (complete main)
Format settings, Endianness : Big
Codec ID : A_AC3
Duration : 1 h 28 min
Bit rate mode : Constant
Bit rate : 192 kb/s
Channel(s) : 2 channels
Channel positions : Front: L R
Sampling rate : 48.0 kHz
Frame rate : 31.250 FPS (1536 spf)
Compression mode : Lossy
Stream size : 122 MiB (8%)
Language : Ukrainian
Default : Yes
Forced : Yes

Audio #2
ID : 3
Format : AC-3
Format/Info : Audio Coding 3
Mode extension : CM (complete main)
Format settings, Endianness : Big
Codec ID : A_AC3
Duration : 1 h 28 min
Bit rate mode : Constant
Bit rate : 192 kb/s
Channel(s) : 2 channels
Channel positions : Front: L R
Sampling rate : 48.0 kHz
Frame rate : 31.250 FPS (1536 spf)
Compression mode : Lossy
Stream size : 122 MiB (8%)
Language : English
Default : No
Forced : No

Menu
00:00:00.000 : en:Chapter 01
00:06:57.625 : en:Chapter 02
00:14:10.083 : en:Chapter 03
00:22:33.333 : en:Chapter 04
00:31:38.833 : en:Chapter 05
00:36:06.791 : en:Chapter 06
00:43:52.833 : en:Chapter 07
00:52:12.791 : en:Chapter 08
00:59:52.916 : en:Chapter 09
01:07:00.708 : en:Chapter 10
01:14:10.208 : en:Chapter 11
01:21:52.208 : en:Chapter 12
Джерело:
Особиста оцінка: не дивився


 Трекер:    Зареєстрований   

Завантажити / скачати мультфільм українською



відео для новачків



 Зареєстрований:   2020-02-16 15:21
 Розмір:   1.56 GB 
 Оцінка мультфільму:   9.4/10 (Голосів: 41)
   
Інші релізи
   Ману / Manou the Swift (2019) 1080p H.265 Ukr/Eng | Sub Eng -Star-Lord-  2 / 0   6.26 GB   2020-04-01 12:57 
   Ману / Manou the Swift (2019) Remux 1080p Ukr/Eng | sub Eng staf777  7 / 0   16.03 GB   2020-02-17 17:07 
   Ману / Manou the Swift (2019) 720p Ukr/Eng | sub Eng staf777  3 / 0   3.5 GB   2020-02-17 15:22 
   Ману / Manou the Swift (2019) antik_2008  7 / 0   1.47 GB   2020-02-17 00:21 
   Ману / Manou the Swift (2019) 1080p Ukr/Eng | sub Eng staf777  7 / 0   7.79 GB   2020-02-16 18:57 
xslim 
Відео Гуртом - фільмокрай
Відео Гуртом - фільмокрай


З нами з: 04.03.09
Востаннє: 29.10.20
Повідомлень: 1371

2020-02-16 16:40  
Новий канал а не ТЕТ + де зазначений автор запису.
Arsenfpu 
Відео Гуртом - фільмокрай
Відео Гуртом - фільмокрай


З нами з: 30.04.09
Востаннє: 30.10.20
Повідомлень: 7365

2020-02-16 16:50  
xslim
За телеканал дякую, виправив.
Щодо джерел, то я завжди вказую авторів записів чи доріжок, коли беру їх десь Happy

xslim 
Відео Гуртом - фільмокрай
Відео Гуртом - фільмокрай


З нами з: 04.03.09
Востаннє: 29.10.20
Повідомлень: 1371

2020-02-17 21:18  
Мультфільм класний але при кінці погано було зроблено склейку доріжки на 01:20:51-53 дуже відчуваться цей момент.
bicicletta 
Новенький


З нами з: 10.02.16
Востаннє: 29.10.20
Повідомлень: 2

2020-03-13 19:37  
Мульт промальований гарно. А от зі сценарієм - біда... на пів-раза.. якби не дитина - вимкнули б на 10 хвилині..
Ваш часовий пояс: GMT + 2 Години

Нова тема   Відповісти