Легенда про Джонні Лінго / The Legend of Johnny Lingo (2003) 1080p Ukr/Eng | Sub Eng

Нові коментарі

Нова тема   Відповісти
Автор Повідомлення
Anonymous 







2020-02-16 12:44  
Легенда про Джонні Лінго / The Legend of Johnny Lingo (2003) 1080p Ukr/Eng | Sub Eng

Легенда про Джонні Лінго / The Legend of Johnny Lingo (2003) 1080p Ukr/Eng | Sub Eng


Жанр: екшн, пригодницький, сімейний
Країна: Нова Зеландія



Кінокомпанія: Turtles Crossing LLC
Режисер: Стівен Рамірез (Steven Ramirez)
Актори: Джордж Хінар (George Henare), Равірі Паратене (Rawiri Paratene), Джо Тола (Joe Folau), Елвін Фітісеману (Alvin Fitisemanu), Кейт Фергюсон (Kayte Ferguson), Петер Саєна-Браун (Peter Sa'ena-Brown), Хорі Ахіпене (Hori Ahipene), Джим Перрі (Jim Perry)

Сюжет:
Коли на острів Маліо падають жорстокі шторми, остров'яни звертаються до богів. Але все, що вони отримують - каное, в якому лежить маленький хлопчик. Однак, вождь племені вважає дитину подарунком богів і оголошує його своїм сином і майбутнім вождем. Далеко на тропічному острові хлопчик сирота на ім'я Тамма, нелюбимий в своєму клані знаходить розраду в спілкуванні з такою ж знедоленою Махал - ображеної дівчини, яка страждає від своєї непоказної зовнішності.

Коли Тамма поплив у море в пошуках нового життя, він обіцяв Махані одного разу повернутися за нею. Але подорож Тамма привела його до Джонні Лінго, багатого торговця, який зробив Тамма своїм учнем і спадкоємцем. Тепер, коли у Тамма нове життя, він повинен зрозуміти, що цінність людини полягає не в її багатстві, а в її любові, дружбі, і, в випадку Тамма, стримування обіцянки, даної в минулому.


Тривалість: 01:31:26
Якість: 1080p
Відео:
кодек:
розмір кадру: 1920х1080
бітрейт: 4272 кб/с

Аудіо # 1:
мова: українська
переклад: багатоголосий закадровий
кодек: 2.0
бітрейт: 192 кб/с

Аудіо # 2:
мова: англійська
переклад: оригінал
кодек: 5.1
бітрейт: 384 кб/с

Субтитри:
мова: англійська
тип: програмні (м'які)
формат: *.srt
Info
General
Unique ID : 219074037617791593165754206528308997407 (0xA4D01FFA026DE0B5A674CF71E2376D1F)
Complete name : H:\Toloka\2020\The Legend of Johnny Lingo (2003) 1080p.
Format :
Format version : Version 4
File size : 3.16 GiB
Duration : 1 h 31 min
Overall bit rate : 4 946 kb/s
Encoded date : UTC 2020-02-16 09:36:18
Writing application : v6.1.0 ('Old Devil') built on Mar 4 2013 09:10:42
Writing library : libebml v1.3.0 + v1.4.0

Video
ID : 1
Format : AVC
Format/Info : Advanced Video Codec
Format profile : [email protected]
Format settings : CABAC / 4 Ref Frames
Format settings, CABAC : Yes
Format settings, RefFrames : 4 frames
Codec ID : V_MPEG4/ISO/AVC
Duration : 1 h 31 min
Bit rate : 4 272 kb/s
Nominal bit rate : 4 500 kb/s
Width : 1 920 pixels
Height : 1 080 pixels
Display aspect ratio : 16:9
Frame rate mode : Constant
Frame rate : 23.976 (24000/1001) FPS
Color space : YUV
Chroma subsampling : 4:2:0
Bit depth : 8 bits
Scan type : Progressive
Bits/(Pixel*Frame) : 0.086
Stream size : 2.73 GiB (86%)
Writing library : core 142 r2491 24e4fed
Encoding settings : cabac=1 / ref=3 / deblock=1:-1:-1 / analyse=0x3:0x113 / me=hex / subme=7 / psy=1 / psy_rd=1.00:0.00 / mixed_ref=1 / me_range=16 / chroma_me=1 / trellis=1 / 8x8dct=1 / cqm=0 / deadzone=21,11 / fast_pskip=1 / chroma_qp_offset=-2 / threads=6 / lookahead_threads=1 / sliced_threads=0 / nr=0 / decimate=1 / interlaced=0 / bluray_compat=0 / constrained_intra=0 / bframes=3 / b_pyramid=2 / b_adapt=1 / b_bias=0 / direct=1 / weightb=1 / open_gop=0 / weightp=2 / keyint=240 / keyint_min=24 / scenecut=40 / intra_refresh=0 / rc_lookahead=40 / rc=abr / mbtree=1 / bitrate=4500 / ratetol=1.0 / qcomp=0.60 / qpmin=0 / qpmax=69 / qpstep=4 / vbv_maxrate=62500 / vbv_bufsize=78125 / nal_hrd=none / filler=0 / ip_ratio=1.40 / aq=1:1.00
Default : Yes
Forced : No
Color range : Limited
Color primaries : BT.709
Transfer characteristics : BT.709
Matrix coefficients : BT.709
Statistics Tags Issue : v20.0.0 ('I Am The Sun') 64-bit 2018-02-19 09:28:23 / v6.1.0 ('Old Devil') built on Mar 4 2013 09:10:42 2020-02-16 09:36:18
FromStats_BitRate : 4368225
FromStats_Duration : 01:31:26.064000000
FromStats_FrameCount : 131534
FromStats_StreamSize : 2995545835

Audio #1
ID : 2
Format : AC-3
Format/Info : Audio Coding 3
Commercial name : Dolby Digital
Codec ID : A_AC3
Duration : 1 h 31 min
Bit rate mode : Constant
Bit rate : 192 kb/s
Channel(s) : 2 channels
Channel layout : L R
Sampling rate : 48.0 kHz
Frame rate : 31.250 FPS (1536 SPF)
Bit depth : 16 bits
Compression mode : Lossy
Stream size : 126 MiB (4%)
Title : UKR (Kino)
Language : Ukrainian
Service kind : Complete Main
Default : Yes
Forced : Yes

Audio #2
ID : 3
Format : AC-3
Format/Info : Audio Coding 3
Commercial name : Dolby Digital
Codec ID : A_AC3
Duration : 1 h 31 min
Bit rate mode : Constant
Bit rate : 384 kb/s
Channel(s) : 6 channels
Channel layout : L R C LFE Ls Rs
Sampling rate : 44.1 kHz
Frame rate : 28.711 FPS (1536 SPF)
Bit depth : 16 bits
Compression mode : Lossy
Stream size : 251 MiB (8%)
Title : ENG
Language : English
Service kind : Complete Main
Default : No
Forced : No
Statistics Tags Issue : v20.0.0 ('I Am The Sun') 64-bit 2018-02-19 09:28:23 / v6.1.0 ('Old Devil') built on Mar 4 2013 09:10:42 2020-02-16 09:36:18
FromStats_BitRate : 383999
FromStats_Duration : 01:31:26.133000000
FromStats_FrameCount : 157512
FromStats_StreamSize : 263334346

Text
ID : 4
Format : UTF-8
Codec ID : S_TEXT/UTF8
Codec ID/Info : UTF-8 Plain Text
Title : ENG
Language : English
Default : Yes
Forced : No
Statistics Tags Issue : v20.0.0 ('I Am The Sun') 64-bit 2018-02-19 09:28:23 / v6.1.0 ('Old Devil') built on Mar 4 2013 09:10:42 2020-02-16 09:36:18
FromStats_BitRate : 58
FromStats_Duration : 01:30:53.014000000
FromStats_FrameCount : 1161
FromStats_StreamSize : 40011

Menu
00:00:00.000 : en:00:00:00.000
00:02:24.061 : en:00:02:24.018
00:06:21.006 : en:00:06:20.963
00:16:10.136 : en:00:16:09.969
00:27:30.065 : en:00:27:29.980
00:32:58.018 : en:00:32:58.017
00:40:55.244 : en:00:40:55.034
00:48:47.967 : en:00:48:47.965
00:57:10.928 : en:00:57:10.927
01:07:59.033 : en:01:07:58.949
01:14:22.959 : en:01:14:22.916
01:24:08.126 : en:01:24:07.917
Скріншоти





За доріжку подяка п.: Merdiff, urij546724
Особиста подяка пану denixx за надану матеріальну допомогу на підтримку цього і майбутніх релізів.
Джерело:


Срібний реліз (на рейтинг впливає 50% завантаженого)
 Трекер:    Зареєстрований   

Завантажити / скачати фільм українською



відео для новачків



 Зареєстрований:   2020-02-16 12:44
 Розмір:   3.16 GB 
 Оцінка фільму:   9.6/10 (Голосів: 5)
   
Інші релізи
Ваш часовий пояс: GMT + 2 Години

Нова тема   Відповісти