Ліга Вотчкар. Повернення чемпіона / Power Battle Watch Car: Return of Watch Mask (2017) 1080p Ukr/Eng

Нові коментарі

Нова тема   Відповісти
Автор Повідомлення
sergiyko.5 
Забанено
Забанено


З нами з: 25.02.16
Востаннє: 29.10.20
Повідомлень: 3648

2020-02-16 02:09  
Всі одноіменні релізи на трекері

Ліга Вотчкар. Повернення чемпіона / Power Battle Watch Car: Return of Watch Mask (2017) 1080p Ukr/Eng


Ліга Вотчкар. Повернення чемпіона / Power Battle Watch Car: Return of Watch Mask (2017) 1080p Ukr/Eng

Жанр: пригоди, фантастика
Країна: Південна Корея
Кінокомпанія: SAMG Animation
Режиссер: Лі Йон-джун

Сюжет:
Джино повертається. В новому мультфільмі на абсолютного чемпіона ліги Вотчкар чекають нові випробування. Цього разу йому доведеться взяти участь в новій лізі та змагатися за звання чемпіона з новим суперником, Кеном. Інтриги та провокації недоброзичливців не зможуть зупинити Джино на шляху до нових перемог.


Тривалість: 01:10:53
Якість:

Відео: кодек: розмір кадру: 1920 х 1080 бітрейт: 4000 кб/с
Аудіо: мова: українська переклад: професійний дубльований кодек: 2.0 бітрейт: 192 кб/с
Озвучення:
Аудіо: мова: англійська переклад: професійний дубльований кодек: 2.0 бітрейт: 192 кб/с

Примітка: 1. Українська доріжка записана з супутникової трансляції і синхронізована під відео, звук не розтягувався і не змінювався тон.
2. Назва мультфільма у відео москальською
Про файл:
General
Unique ID : 94724707806793280614411490767145513335 (0x474350ABF4C9D41A5ED5A5EC0DE7B177)
Complete name : D:\Documents\Torrents\MULTSER_2\Power Battle WatchCar.Return of Watch Mask.2017.1080p..
Format :
Format version : Version 4
File size : 2.17 GiB
Duration : 1 h 10 min
Overall bit rate : 4 385 kb/s
Movie name : Power Battle WatchCar.Return of Watch Mask 2017 by sergiyko
Encoded date : UTC 2020-02-16 00:04:09
Writing application : v42.0.0 ('Overtime') 64-bit
Writing library : libebml v1.3.10 + v1.5.2

Video
ID : 1
Format : AVC
Format/Info : Advanced Video Codec
Format profile : [email protected]
Format settings : CABAC / 3 Ref Frames
Format settings, CABAC : Yes
Format settings, Reference fra : 3 frames
Codec ID : V_MPEG4/ISO/AVC
Duration : 1 h 10 min
Bit rate : 4 000 kb/s
Width : 1 920 pixels
Height : 1 080 pixels
Display aspect ratio : 16:9
Frame rate mode : Constant
Frame rate : 25.000 FPS
Color space : YUV
Chroma subsampling : 4:2:0
Bit depth : 8 bits
Scan type : Progressive
Bits/(Pixel*Frame) : 0.077
Stream size : 1.98 GiB (91%)
Title : Power Battle WatchCar.Return of Watch Mask 2017
Writing library : core 142 r2389 956c8d8
Encoding settings : cabac=1 / ref=3 / deblock=1:0:0 / analyse=0x3:0x133 / me=umh / subme=7 / psy=1 / psy_rd=1.00:0.00 / mixed_ref=1 / me_range=32 / chroma_me=1 / trellis=2 / 8x8dct=1 / cqm=0 / deadzone=21,11 / fast_pskip=1 / chroma_qp_offset=-2 / threads=12 / lookahead_threads=2 / sliced_threads=0 / nr=0 / decimate=1 / interlaced=0 / bluray_compat=0 / constrained_intra=0 / bframes=0 / weightp=0 / keyint=75 / keyint_min=26 / scenecut=40 / intra_refresh=0 / rc_lookahead=50 / rc=2pass / mbtree=0 / bitrate=4000 / ratetol=1.0 / qcomp=0.20 / qpmin=10 / qpmax=51 / qpstep=4 / cplxblur=20.0 / qblur=0.5 / vbv_maxrate=5000 / vbv_bufsize=5000 / nal_hrd=none / filler=0 / ip_ratio=1.40 / aq=1:1.00
Language : English
Default : Yes
Forced : No
Color range : Limited
Color primaries : BT.709
Transfer characteristics : BT.709
Matrix coefficients : BT.709

Audio #1
ID : 2
Format : AC-3
Format/Info : Audio Coding 3
Commercial name : Dolby Digital
Codec ID : A_AC3
Duration : 1 h 10 min
Bit rate mode : Constant
Bit rate : 192 kb/s
Channel(s) : 2 channels
Channel layout : L R
Sampling rate : 48.0 kHz
Frame rate : 31.250 FPS (1536 SPF)
Compression mode : Lossy
Stream size : 97.4 MiB (4%)
Title : DUB | Піксель
Language : Ukrainian
Service kind : Complete Main
Default : Yes
Forced : Yes

Audio #2
ID : 3
Format : AC-3
Format/Info : Audio Coding 3
Commercial name : Dolby Digital
Codec ID : A_AC3
Duration : 1 h 10 min
Bit rate mode : Constant
Bit rate : 192 kb/s
Channel(s) : 2 channels
Channel layout : L R
Sampling rate : 48.0 kHz
Frame rate : 31.250 FPS (1536 SPF)
Compression mode : Lossy
Stream size : 97.4 MiB (4%)
Language : English
Service kind : Complete Main
Default : No
Forced : No
Скріншоти:


Запис: xslim
Зведення: sergiyko


 Трекер:    Зареєстрований   

Завантажити / скачати мультфільм українською



відео для новачків



 Зареєстрований:   2020-02-16 02:09
 Розмір:   2.17 GB 
 Оцінка мультфільму:   9.6/10 (Голосів: 7)
   
MutuLI 
Відео Гуртом - фільмокрай
Відео Гуртом - фільмокрай


З нами з: 08.03.09
Востаннє: 04.03.21
Повідомлень: 2104

2020-02-16 17:34  
Добре було б робити, ще AVC реліз по можливості, так краще для збереження релізу.
Ваш часовий пояс: GMT + 2 Години

Нова тема   Відповісти