Щасливець / Lucky You (2007) 1080p Ukr/Eng | Sub Eng

Нові коментарі

Нова тема   Відповісти
Автор Повідомлення
Anonymous 







2020-02-15 08:48  
Щасливець / Lucky You (2007) 1080p Ukr/Eng | Sub Eng

Щасливець / Lucky You (2007) 1080p Ukr/Eng | Sub Eng


Жанр: драма, романтичний, спорт
Країна: США, Німеччина, Австралія



Кінокомпанія: Warner Bros. Pictures, Village Roadshow Pictures, Deuce Three Productions
Режисер: Кертіс Генсон /Curtis Hanson
Актори: Ерік Бана /Eric Bana/, Дрю Беррімор /Drew Barrymore/, Роберт Дюваль /Robert Duvall/, Дебра Мессінг /Debra Messing/, Чарльз Мартін Сміт /Charles Martin Smith/, Роберт Дауні-молодший /Robert Downey Jr./

Сюжет:
Дія фільму розвертається в світі професійного покеру.Головний герой стрічки - гравець Гек Чивер береться виграти чемпіонат світу по покеру, а заразом і зачарувати молоду співачку Біллі Оффер, але зустрічає на своїй дорозі несподівану перешкоду - в особі свого батька, легендарного гравця в покер, що кинув матір Гека багато років тому. У результаті батько і син стають суперниками не лише в житті, але і за картковим столом...


Тривалість: 02:03:33
Якість: 1080p
Відео:
кодек:
розмір кадру: 1920х800
бітрейт: 6482 кб/с

Аудіо # 1:
мова: українська
переклад: багатоголосий закадровий
кодек: 2.0 (з 5.1)
бітрейт: 192 кб/с

Аудіо # 2:
мова: англійська
переклад: оригінал
кодек: E-AC-3 5.1
бітрейт: 640 кб/с

Субтитри:
мова: англійська
тип: програмні (м'які)
формат: *.srt
Info
General
Unique ID : 211171272809822402779456705751099283144 (0x9EDE1B96CE8F69A99879571A0FB296C8)
Complete name : H:\Toloka\2020\Lucky You (2007) 1080p.
Format :
Format version : Version 4
File size : 6.44 GiB
Duration : 2 h 3 min
Overall bit rate mode : Variable
Overall bit rate : 7 463 kb/s
Encoded date : UTC 2020-02-15 05:42:51
Writing application : v6.1.0 ('Old Devil') built on Mar 4 2013 09:10:42
Writing library : libebml v1.3.0 + v1.4.0

Video
ID : 1
Format : AVC
Format/Info : Advanced Video Codec
Format profile : [email protected]
Format settings : CABAC / 4 Ref Frames
Format settings, CABAC : Yes
Format settings, RefFrames : 4 frames
Codec ID : V_MPEG4/ISO/AVC
Duration : 2 h 3 min
Bit rate mode : Variable
Bit rate : 6 482 kb/s
Maximum bit rate : 15.0 Mb/s
Width : 1 920 pixels
Height : 800 pixels
Display aspect ratio : 2.40:1
Frame rate mode : Constant
Frame rate : 23.976 (24000/1001) FPS
Color space : YUV
Chroma subsampling : 4:2:0
Bit depth : 8 bits
Scan type : Progressive
Bits/(Pixel*Frame) : 0.176
Stream size : 5.59 GiB (87%)
Writing library : core 148 r2623 d5b2374
Encoding settings : cabac=1 / ref=4 / deblock=1:-1:-1 / analyse=0x3:0x133 / me=umh / subme=9 / psy=1 / psy_rd=1.00:0.15 / mixed_ref=1 / me_range=24 / chroma_me=1 / trellis=2 / 8x8dct=1 / cqm=0 / deadzone=21,11 / fast_pskip=1 / chroma_qp_offset=-3 / threads=25 / lookahead_threads=4 / sliced_threads=0 / nr=150 / decimate=1 / interlaced=0 / bluray_compat=0 / constrained_intra=0 / bframes=8 / b_pyramid=2 / b_adapt=2 / b_bias=0 / direct=3 / weightb=1 / open_gop=0 / weightp=2 / keyint=120 / keyint_min=61 / scenecut=0 / intra_refresh=0 / rc_lookahead=120 / rc=crf / mbtree=1 / crf=18.0 / qcomp=0.60 / qpmin=0 / qpmax=69 / qpstep=4 / vbv_maxrate=15000 / vbv_bufsize=31250 / crf_max=0.0 / nal_hrd=vbr / filler=0 / ip_ratio=1.40 / aq=3:1.00
Default : Yes
Forced : No
Color range : Limited
Color primaries : BT.709
Transfer characteristics : BT.709
Matrix coefficients : BT.709
Statistics Tags Issue : v9.3.1 ('Mask Machine') 64bit 2016-08-30 19:32:01 / v6.1.0 ('Old Devil') built on Mar 4 2013 09:10:42 2020-02-15 05:42:51
FromStats_BitRate : 6629180
FromStats_Duration : 02:03:32.572000000
FromStats_FrameCount : 177724
FromStats_StreamSize : 6142409626

Audio #1
ID : 2
Format : AC-3
Format/Info : Audio Coding 3
Commercial name : Dolby Digital
Codec ID : A_AC3
Duration : 2 h 3 min
Bit rate mode : Constant
Bit rate : 192 kb/s
Channel(s) : 2 channels
Channel layout : L R
Sampling rate : 48.0 kHz
Frame rate : 31.250 FPS (1536 SPF)
Bit depth : 16 bits
Compression mode : Lossy
Stream size : 170 MiB (3%)
Title : UKR (Новий)
Language : Ukrainian
Service kind : Complete Main
Default : Yes
Forced : Yes

Audio #2
ID : 3
Format : E-AC-3
Format/Info : Enhanced AC-3
Commercial name : Dolby Digital Plus
Codec ID : A_EAC3
Duration : 2 h 3 min
Bit rate mode : Constant
Bit rate : 640 kb/s
Channel(s) : 6 channels
Channel layout : L R C LFE Ls Rs
Sampling rate : 48.0 kHz
Frame rate : 31.250 FPS (1536 SPF)
Compression mode : Lossy
Stream size : 566 MiB (9%)
Title : ENG
Language : English
Service kind : Complete Main
Default : No
Forced : No
Statistics Tags Issue : v9.3.1 ('Mask Machine') 64bit 2016-08-30 19:32:01 / v6.1.0 ('Old Devil') built on Mar 4 2013 09:10:42 2020-02-15 05:42:51
FromStats_BitRate : 640000
FromStats_Duration : 02:03:32.544000000
FromStats_FrameCount : 231642
FromStats_StreamSize : 593003520

Text
ID : 4
Format : UTF-8
Codec ID : S_TEXT/UTF8
Codec ID/Info : UTF-8 Plain Text
Title : ENG
Language : English
Default : Yes
Forced : No
Statistics Tags Issue : v9.3.1 ('Mask Machine') 64bit 2016-08-30 19:32:01 / v6.1.0 ('Old Devil') built on Mar 4 2013 09:10:42 2020-02-15 05:42:51
FromStats_BitRate : 63
FromStats_Duration : 02:03:21.360000000
FromStats_FrameCount : 2160
FromStats_StreamSize : 58630
Скріншоти







За доріжку подяка п. Skiff
Особиста подяка пану denixx за надану матеріальну допомогу на підтримку цього і майбутніх релізів.
Джерело:


 Трекер:    Зареєстрований   

Завантажити / скачати фільм українською



відео для новачків



 Зареєстрований:   2020-02-15 08:48
 Розмір:   6.44 GB 
 Оцінка фільму:   9.8/10 (Голосів: 4)
   
Інші релізи
   Щасливець / Lucky You (2007) Ukr/Eng Skiff  2 / 0   2.18 GB   2011-10-01 17:50 
Ваш часовий пояс: GMT + 2 Години

Нова тема   Відповісти