Люсі / Lucy (2014) 4K UHD HDR Remux 2160p 2хUkr/Eng | Sub Ukr/Eng

Нові коментарі

Нова тема   Відповісти
Автор Повідомлення
Documentalist 
Свій


З нами з: 04.06.17
Востаннє: 22.02.20
Повідомлень: 96

2020-02-15 02:04  
ЛЛюсі / Lucy (2014) 4K UHD HDR Remux 2160p 2хUkr/Eng | Sub Ukr/Eng

Люсі / Lucy (2014) 4K UHD HDR Remux 2160p 2хUkr/Eng | Sub Ukr/Eng


Жанр: бойовик, фантастика
Країна: Франція



Кінокомпанія: Canal+ [fr], Ciné, EuropaCorp, TF1 Films Production
Режисер: Люк Бессон
Актори: Скарлетт Йогансон, Морган Фрімен, Чхве Мін Сік, Амр Вакед, Джуліан Райнд-Татт, Йохан Филип Асбек, Аналей Тіптон

Сюжет:
Ще вчора вона була просто сексапільною блондинкою, а сьогодні - найнебезпечніше і смертоносне створіння на планеті з надприродними здібностями та інтелектом. Те, що зовсім недавно кращі уми світу вважали фантастичною теорією, для неї стало реальністю. І тепер із здобичі вона перетвориться на мисливицю.


Тривалість: 01:29:20
Якість: UHD Remux 2160p
Відео:
кодек: H.265 (HEVC)
розмір кадру: 3840х2160
бітрейт: 80.0 Mб/с
бітова глибина: 10 біт
кольоровий простір: BT.2086, (HDR10)
Увага! Перед завантаженням переконайтесь, що ваш пристрій відтворення (та/або ПЗ) підтримує H.265 (HEVC)

Аудіо:
мова: українська
переклад: професійний дубльований | студія LeDoyen
кодек: 2.0
бітрейт: 160 кб/с

Аудіо # 2:
мова: українська
переклад: багатоголосий закадровий
кодек: 2.0
бітрейт: 160 кб/с

Аудіо# 3:
мова: англійська
переклад: оригінал
кодек: TrueHD 7.1+Atmos
бітрейт: 5206 кб/с

Субтитри # 1-2:
мова: українська (форсовані, повні)
тип: програмні (м'які)
формат: *.srt

Субтитри # 3:
мова: англійська (повні SDH)
тип: програмні (м'які)
формат: *.srt
Info
Format :
Format version : Version 4
File size : 53.5 GiB
Duration : 1 h 29 min
Overall bit rate mode : Variable
Overall bit rate : 85.6 Mb/s
Movie name : Люсі (Lucy) 2014 4K UHD HDR Remux 2160p [Hurtom]
Encoded date : UTC 2020-02-14 22:34:15
Writing application : v7.8.0 ('River Man') 32bit built on Mar 27 2015 16:18:02
Writing library : libebml v1.3.1 + v1.4.2
Cover : Yes
Attachments : Cover.png

Video
ID : 1
Format : HEVC
Format/Info : High Efficiency Video Coding
Format profile : Main [email protected]@High
HDR format : SMPTE ST 2086, HDR10 compatible
Codec ID : V_MPEGH/ISO/HEVC
Duration : 1 h 29 min
Bit rate : 80.0 Mb/s
Width : 3 840 pixels
Height : 2 160 pixels
Display aspect ratio : 16:9
Frame rate mode : Constant
Frame rate : 23.976 (24000/1001) FPS
Color space : YUV
Chroma subsampling : 4:2:0 (Type 2)
Bit depth : 10 bits
Bits/(Pixel*Frame) : 0.402
Stream size : 50.0 GiB (93%)
Title : Люсі (Lucy) 2014 4K UHD HDR Remux 2160p [Hurtom]
Writing library : ATEME Titan KFE 3.7.3 (4.7.3.1003)
Language : Ukrainian
Default : Yes
Forced : No
Color range : Limited
Color primaries : BT.2020
Transfer characteristics : PQ
Matrix coefficients : BT.2020 non-constant
Mastering display color pri : Display P3
Mastering display luminance : min: 0.0050 cd/m2, max: 1000 cd/m2
Maximum Content Light Level : 1000 cd/m2
Maximum Frame-Average Light : 400 cd/m2

Audio #1
ID : 2
Format : AC-3
Format/Info : Audio Coding 3
Commercial name : Dolby Digital
Codec ID : A_AC3
Duration : 1 h 29 min
Bit rate mode : Constant
Bit rate : 160 kb/s
Channel(s) : 2 channels
Channel layout : L R
Sampling rate : 48.0 kHz
Frame rate : 31.250 FPS (1536 SPF)
Compression mode : Lossy
Stream size : 102 MiB (0%)
Title : Le Doyen Studio [2.0 ch]
Language : Ukrainian
Service kind : Complete Main
Default : Yes
Forced : Yes

Audio #2
ID : 3
Format : AC-3
Format/Info : Audio Coding 3
Commercial name : Dolby Digital
Codec ID : A_AC3
Duration : 1 h 29 min
Bit rate mode : Constant
Bit rate : 160 kb/s
Channel(s) : 2 channels
Channel layout : L R
Sampling rate : 48.0 kHz
Frame rate : 31.250 FPS (1536 SPF)
Compression mode : Lossy
Stream size : 102 MiB (0%)
Title : Воля CINE+ [2.0 ch]
Language : Ukrainian
Service kind : Complete Main
Default : No
Forced : No

Audio #3
ID : 4
Format : MLP FBA 16-ch
Format/Info : Meridian Lossless Packing FBA with 16-channel presentation
Commercial name : Dolby TrueHD with Dolby Atmos
Codec ID : A_TRUEHD
Duration : 1 h 29 min
Bit rate mode : Variable
Bit rate : 5 206 kb/s
Maximum bit rate : 8 685 kb/s
Channel(s) : 8 channels
Channel layout : L R C LFE Ls Rs Lb Rb
Sampling rate : 48.0 kHz
Frame rate : 1 200.000 FPS (40 SPF)
Compression mode : Lossless
Stream size : 3.25 GiB (6%)
Title : Оригінал [ATMOS+7.1 ch]
Language : English
Default : No
Forced : No
Number of dynamic objects : 11
Bed channel count : 1 channel
Bed channel configuration : LFE

Text #1
ID : 5
Format : UTF-8
Codec ID : S_TEXT/UTF8
Codec ID/Info : UTF-8 Plain Text
Duration : 1 h 20 min
Bit rate : 57 b/s
Count of elements : 777
Stream size : 34.2 KiB (0%)
Title : Повні
Language : Ukrainian
Default : Yes
Forced : Yes

Text #2
ID : 6
Format : UTF-8
Codec ID : S_TEXT/UTF8
Codec ID/Info : UTF-8 Plain Text
Duration : 1 h 17 min
Bit rate : 4 b/s
Count of elements : 67
Stream size : 2.65 KiB (0%)
Title : Форсовані
Language : Ukrainian
Default : No
Forced : No

Text #3
ID : 7
Format : UTF-8
Codec ID : S_TEXT/UTF8
Codec ID/Info : UTF-8 Plain Text
Duration : 1 h 20 min
Bit rate : 45 b/s
Count of elements : 955
Stream size : 27.0 KiB (0%)
Title : Повні (SDH)
Language : English
Default : No
Forced : No

Menu
00:00:00.000 : en:Chapter 01
00:05:26.368 : en:Chapter 02
00:08:38.268 : en:Chapter 03
00:15:45.570 : en:Chapter 04
00:21:36.295 : en:Chapter 05
00:26:05.397 : en:Chapter 06
00:30:27.534 : en:Chapter 07
00:37:36.254 : en:Chapter 08
00:41:43.459 : en:Chapter 09
00:47:32.558 : en:Chapter 10
00:50:10.716 : en:Chapter 11
00:55:32.496 : en:Chapter 12
00:59:36.072 : en:Chapter 13
01:02:08.099 : en:Chapter 14
01:04:51.346 : en:Chapter 15
01:07:14.030 : en:Chapter 16
01:09:55.817 : en:Chapter 17
01:12:26.133 : en:Chapter 18
01:18:50.601 : en:Chapter 19
01:22:31.572 : en:Chapter 20
Скріншоти
Перегляд 4K HDR-контенту на ПК, керівництво з експлуатації

Для перегляду HDR-контенту необхідний телевізор з підтримкою HDR. Просто запишіть на usb-накопичувач викачане відео і встановіть його в ваш ТВ. На звичайних дисплеях зображення буде виглядати неконтрастним і знебарвленим.

Вирішення цієї проблеми, зараз можливо на PC під ОС Windows, використовуючи плеєр, який підтримує висновок зображення через рендер madvr (http://madvr.com), який може виконувати програмну конверсію, у кольоровий простір і гаму REC.709.

Ми рекомендуємо Media Player Classic Home Cinema.

Після встановлення рекомендованих плеєрів, необхідно окремо встановити madvr.
Для цього скачайте з сайту архів, розпакуйте його в зручне місце і запустіть install.bat від облікового запису адміністратора.
Після установки, папку з вмістом не видаляти!
Якщо папку необхідно перенести в інше місце, то після перенесення необхідно знову запустити install.bat.
Для того, щоб зображення виводилося за допомогою madvr, його необхідно вибрати в налаштуваннях плеєра:


Золотий реліз (завантажене не впливає на рейтинг)
 Трекер:    Зареєстрований   

Завантажити / скачати фільм українською



відео для новачків



 Зареєстрований:   2020-02-15 02:04
 Розмір:   53.5 GB 
 Оцінка фільму:   9.2/10 (Голосів: 5)
   
Інші релізи
   Люсі / Lucy (2014) 720p 2хUkr/Eng | Sub Ukr/Eng 11FrYkT  23 / 1   2.91 GB   2020-02-01 08:31 
   Люсі / Lucy (2014) Remux 1080p 2хUkr/Eng | Sub Ukr/Eng staf777  8 / 0   19.81 GB   2018-12-20 19:12 
   Люсі / Lucy (2014) AVC 2xUkr/Eng | Sub Ukr/Eng drop_plz  12 / 1   2.14 GB   2018-12-15 09:20 
   Люсі / Lucy (2014) 720p-mini (60fps) Drool  3 / 0   3.85 GB   2016-03-18 15:29 
   Люсі / Lucy (2014) 1080p Ukr/Eng | Sub Ukr/Eng 11FrYkT  16 / 0   9.31 GB   2014-11-23 12:29 
   Люсі / Lucy (2014) patriot2305  16 / 0   1.45 GB   2014-11-23 10:26 
Ваш часовий пояс: GMT + 2 Години

Нова тема   Відповісти