Діаблеро (Сезон 2) / Diablero (Season 2) (2020)

Нові коментарі

Нова тема   Відповісти
Останній раз роздавалося don pedro (2020-09-23)
Автор Повідомлення
DniproFilm 
VIP


З нами з: 10.10.18
Востаннє: 23.09.20
Повідомлень: 429

2020-02-14 23:45  
Діаблеро (Сезон 2) / Diablero (Season 2) (2020)

Діаблеро (Сезон 2) / Diablero (Season 2) (2020)


Жанр: жахи
Країна: Мексика


Кінокомпанія / телеканал: Morena Films

Режисер: Рігоберто Кастанеда, Хосе Мануель Кравіотто
Актори/ролі озвучують: Джейсон Хі, Горасіо Гарсіа Рохас, Хісел'я Курі, Фатіма Моліна, Крістофер Укерман, Умберто Бусто та інші

Сюжет:
Священник Раміро Вентура об'єднується з групою ексентричних мисливців на демонів та дослідницею паранормального - і усе для того, аби знайти маленьку дівчинку та провчити зло, що спустилося на Мехіко.


Тривалість: 1 серія: ~ 40 хв. (цілком серій: 6)
Перелік серій

1. Searching for Ventura
2. The Ahuizotl
3. Tears of the Devil
4. Coatlicue
5. You Don't Choose Your Family
6. The Black Key
Якість:
Відео:
кодек:
розмір кадру: 720x400
бітрейт: ~1800 кб/с

Аудіо # 1:
мова: українська
переклад: двоголосий закадровий
кодек: 5.1
бітрейт: 384 кб/с

Джерело озвучення:
DniproFilm
Info

Video
ID : 0
Format : MPEG-4 Visual
Format profile : Advanced [email protected]
Format settings : BVOP2
Format settings, BVOP : 2
Format settings, QPel : No
Format settings, GMC : No warppoints
Format settings, Matrix : Default (H.263)
Muxing mode : Packed bitstream
Codec ID :
Codec ID/Hint :
Duration : 38 min 21 s
Bit rate : 1 752 kb/s
Width : 720 pixels
Height : 400 pixels
Display aspect ratio : 16:9
Frame rate : 24.000 FPS
Color space : YUV
Chroma subsampling : 4:2:0
Bit depth : 8 bits
Scan type : Progressive
Compression mode : Lossy
Bits/(Pixel*Frame) : 0.253
Stream size : 480 MiB (82%)
Writing library : 67

Audio
ID : 1
Format : AC-3
Format/Info : Audio Coding 3
Commercial name : Dolby Digital
Codec ID : 2000
Duration : 38 min 20 s
Bit rate mode : Constant
Bit rate : 384 kb/s
Channel(s) : 6 channels
Channel layout : L R C LFE Ls Rs
Sampling rate : 48.0 kHz
Frame rate : 31.250 FPS (1536 SPF)
Compression mode : Lossy
Stream size : 105 MiB (18%)
Alignment : Aligned on interleaves
Interleave, duration : 42 ms (1.00 video frame)
Interleave, preload duratio : 512 ms
Service kind : Complete Main
Скріншоти




Авторський реліз (завантажувати можна без реєстрації)
 Трекер:    Зареєстрований   

Завантажити / скачати серіал українською



відео для новачків



 Зареєстрований:   2020-02-14 23:46
 Розмір:   3.2 GB 
 Оцінка серіалу:   10/10 (Голосів: 5)
   
Ваш часовий пояс: GMT + 2 Години

Нова тема   Відповісти