Діаблеро (Сезон 2) / Diablero (Season 2) (2020) 720p Ukr/Spa

Нові коментарі

Нова тема   Відповісти
Останній раз роздавалося scaleua (2020-02-15)
Автор Повідомлення
DniproFilm 
VIP


З нами з: 10.10.18
Востаннє: 25.02.20
Повідомлень: 358

2020-02-14 22:45  
Діаблеро (Сезон 2) / Diablero (Season 2) (2020) 720p Ukr/Spa

Діаблеро (Сезон 2) / Diablero (Season 2) (2020) 720p Ukr/Spa


Жанр: жахи
Країна: Мексика


Кінокомпанія / телеканал: Morena Films

Режисер: Рігоберто Кастанеда, Хосе Мануель Кравіотто
Актори/ролі озвучують: Джейсон Хі, Горасіо Гарсіа Рохас, Хісел'я Курі, Фатіма Моліна, Крістофер Укерман, Умберто Бусто та інші

Сюжет:
Священник Раміро Вентура об'єднується з групою ексентричних мисливців на демонів та дослідницею паранормального - і усе для того, аби знайти маленьку дівчинку та провчити зло, що спустилося на Мехіко.


Тривалість: 1 серія: ~ 40 хв. (цілком серій: 6)
Перелік серій

1. Searching for Ventura
2. The Ahuizotl
3. Tears of the Devil
4. Coatlicue
5. You Don't Choose Your Family
6. The Black Key
Якість:
Відео:
кодек:
розмір кадру: 1280x720
бітрейт: ~4000 кб/с

Аудіо # 1:
мова: українська
переклад: двоголосий закадровий
кодек: 5.1
бітрейт: 384 кб/с

Аудіо # 2:
мова: іспанська
переклад: оригінал
кодек: 5.1
бітрейт: 640 кб/с

Джерело озвучення:
DniproFilm
Info

Video
ID : 1
Format : AVC
Format/Info : Advanced Video Codec
Format profile : [email protected]
Format settings : CABAC / 4 Ref Frames
Format settings, CABAC : Yes
Format settings, Reference : 4 frames
Codec ID : V_MPEG4/ISO/AVC
Duration : 38 min 21 s
Bit rate : 3 917 kb/s
Width : 1 280 pixels
Height : 720 pixels
Display aspect ratio : 16:9
Frame rate mode : Constant
Frame rate : 24.000 FPS
Color space : YUV
Chroma subsampling : 4:2:0
Bit depth : 8 bits
Scan type : Progressive
Bits/(Pixel*Frame) : 0.177
Stream size : 1.05 GiB (79%)
Language : English
Default : Yes
Forced : No
Color range : Limited
Color primaries : BT.709
Transfer characteristics : BT.709
Matrix coefficients : BT.709

Audio #1
ID : 2
Format : AC-3
Format/Info : Audio Coding 3
Commercial name : Dolby Digital
Codec ID : A_AC3
Duration : 38 min 21 s
Bit rate mode : Constant
Bit rate : 384 kb/s
Channel(s) : 6 channels
Channel layout : L R C LFE Ls Rs
Sampling rate : 48.0 kHz
Frame rate : 31.250 FPS (1536 SPF)
Compression mode : Lossy
Stream size : 105 MiB (8%)
Title : DniproFilm
Language : Ukrainian
Service kind : Complete Main
Default : Yes
Forced : No

Audio #2
ID : 3
Format : AC-3
Format/Info : Audio Coding 3
Commercial name : Dolby Digital
Codec ID : A_AC3
Duration : 38 min 21 s
Bit rate mode : Constant
Bit rate : 640 kb/s
Channel(s) : 6 channels
Channel layout : L R C LFE Ls Rs
Sampling rate : 48.0 kHz
Frame rate : 31.250 FPS (1536 SPF)
Compression mode : Lossy
Stream size : 176 MiB (13%)
Language : Spanish
Service kind : Complete Main
Default : No
Forced : No
Скріншоти




Авторський реліз (завантажувати можна без реєстрації)
 Трекер:    Зареєстрований   

Завантажити / скачати серіал українською



відео для новачків



 Зареєстрований:   2020-02-14 22:45
 Розмір:   7.45 GB 
 Оцінка серіалу:   10/10 (Голосів: 2)
   
Ваш часовий пояс: GMT + 2 Години

Нова тема   Відповісти