Клара та Чарівний Дракон (2019)

Нові коментарі

Нова тема   Відповісти
Автор Повідомлення
sergiyko.5 
VIP


З нами з: 25.02.16
Востаннє: 29.02.20
Повідомлень: 2959

2020-02-14 17:55  
Всі одноіменні релізи на трекері

Клара та Чарівний Дракон (2019)


Клара та Чарівний Дракон (2019)

Жанр: пригоди, комедія
Країна: Україна
Компанія: Image Pictures
Режисер: Олександр Клименко

Сюжет:
Коли в тобі прихована незвідана сила - ти готовий на все. Дівчина Клара живе у маленькому будиночку разом з трьома дивакуватими мавпочками і навіть не підозрює, що життя готує їй виклик. Раз на тисячу років в казковому лісі з’являється чарівний Дракон, який має надзвичайні здібності. За його чарами розпочали полювання Сили Зла, але Клара разом з двома друзями життєрадісним Єнотом і буркотливим Гномом, вирішують врятувати маленького Дракона і повернути його додому. Під час мандрівки друзі дізнаються, що Сили Зла насправді полюють не тільки на Дракона, а також на Клару! Чим закінчаться пригоди і ким насправді є лісова дівчина Клара.




Тривалість: 01:26:59
Якість:

Відео: кодек: розмір кадру: 720 х 304 бітрейт: 1700 кб/с
Аудіо: мова: українська переклад: оригінал кодек: 2.0 бітрейт: 192 кб/с
Про файл:
General
Complete name : D:\Documents\Torrents\MULTSER_2\Клара та Чарівний Дракон.2019..avi
Format : AVI
Format/Info : Audio Video Interleave
File size : 1.15 GiB
Duration : 1 h 26 min
Overall bit rate : 1 890 kb/s
Writing application : VirtualDubMod 1.5.10.3 | www.virtualdub-fr.org || (build 2550/release)
Writing library : VirtualDubMod build 2550/release

Video
ID : 0
Format : MPEG-4 Visual
Format profile : Advanced [email protected]
Format settings : BVOP2
Format settings, BVOP : 2
Format settings, QPel : No
Format settings, GMC : No warppoints
Format settings, Matrix : Default (H.263)
Codec ID : DIVX
Codec ID/Info : Project Mayo
Codec ID/Hint : DivX 4
Duration : 1 h 26 min
Bit rate : 1 689 kb/s
Width : 720 pixels
Height : 304 pixels
Display aspect ratio : 2.35:1
Frame rate : 24.000 FPS
Color space : YUV
Chroma subsampling : 4:2:0
Bit depth : 8 bits
Scan type : Progressive
Compression mode : Lossy
Bits/(Pixel*Frame) : 0.321
Stream size : 1.03 GiB (89%)
Writing library : 67

Audio
ID : 1
Format : AC-3
Format/Info : Audio Coding 3
Commercial name : Dolby Digital
Codec ID : 2000
Duration : 1 h 26 min
Bit rate mode : Constant
Bit rate : 192 kb/s
Channel(s) : 2 channels
Channel layout : L R
Sampling rate : 48.0 kHz
Frame rate : 31.250 FPS (1536 SPF)
Compression mode : Lossy
Stream size : 119 MiB (10%)
Alignment : Split across interleaves
Interleave, duration : 42 ms (1.00 video frame)
Interleave, preload duratio : 500 ms
Service kind : Complete Main
Скріншоти:


Золотий реліз (завантажене не впливає на рейтинг)
 Трекер:    Зареєстрований   

Завантажити / скачати український мультфільм



відео для новачків



 Зареєстрований:   2020-02-14 17:55
 Розмір:   1.15 GB 
 Оцінка мультфільму:   9.3/10 (Голосів: 12)
   
Ваш часовий пояс: GMT + 2 Години

Нова тема   Відповісти