Клара та Чарівний Дракон (2019) 1080p

Нові коментарі

Нова тема   Відповісти
Автор Повідомлення
sergiyko.5 
VIP


З нами з: 25.02.16
Востаннє: 26.02.20
Повідомлень: 2954

2020-02-14 15:48  
Всі одноіменні релізи на трекері

Клара та Чарівний Дракон (2019) 1080p


Клара та Чарівний Дракон (2019) 1080p

Жанр: пригоди, комедія
Країна: Україна
Компанія: Image Pictures
Режисер: Олександр Клименко

Сюжет:
Коли в тобі прихована незвідана сила - ти готовий на все. Дівчина Клара живе у маленькому будиночку разом з трьома дивакуватими мавпочками і навіть не підозрює, що життя готує їй виклик. Раз на тисячу років в казковому лісі з’являється чарівний Дракон, який має надзвичайні здібності. За його чарами розпочали полювання Сили Зла, але Клара разом з двома друзями життєрадісним Єнотом і буркотливим Гномом, вирішують врятувати маленького Дракона і повернути його додому. Під час мандрівки друзі дізнаються, що Сили Зла насправді полюють не тільки на Дракона, а також на Клару! Чим закінчаться пригоди і ким насправді є лісова дівчина Клара.




Тривалість: 01:26:59
Якість:

Відео: кодек: розмір кадру: 1920 х 800 бітрейт: 4000 кб/с
Аудіо: мова: українська переклад: оригінал кодек: 2.0 бітрейт: 192 кб/с
Про файл:
General
Unique ID : 69696172134808621927436807889260497303 (0x346EFE970D204121247B21C6C7B1C997)
Complete name : D:\Documents\Torrents\MULTSER_2\Клара та Чарівний Дракон.2019.1080p..
Format :
Format version : Version 4
File size : 2.56 GiB
Duration : 1 h 26 min
Overall bit rate : 4 217 kb/s
Movie name : Клара та Чарівний Дракон 2019 by sergiyko
Encoded date : UTC 2020-02-14 11:48:58
Writing application : v42.0.0 ('Overtime') 64-bit
Writing library : libebml v1.3.10 + v1.5.2
Cover : Yes
Attachments : cover.jpeg

Video
ID : 1
Format : AVC
Format/Info : Advanced Video Codec
Format profile : [email protected]
Format settings : CABAC / 3 Ref Frames
Format settings, CABAC : Yes
Format settings, Reference : 3 frames
Codec ID : V_MPEG4/ISO/AVC
Duration : 1 h 26 min
Bit rate : 4 022 kb/s
Width : 1 920 pixels
Height : 800 pixels
Display aspect ratio : 2.40:1
Frame rate mode : Variable
Frame rate : 23.841 FPS
Original frame rate : 24.000 FPS
Color space : YUV
Chroma subsampling : 4:2:0
Bit depth : 8 bits
Scan type : Progressive
Bits/(Pixel*Frame) : 0.110
Stream size : 2.44 GiB (95%)
Title : Клара та Чарівний Дракон 2019
Language : Ukrainian
Default : Yes
Forced : No

Audio
ID : 2
Format : LC
Format/Info : Advanced Audio Codec Low Complexity
Codec ID : A_AAC-2
Duration : 1 h 26 min
Bit rate : 192 kb/s
Channel(s) : 2 channels
Channel layout : L R
Sampling rate : 48.0 kHz
Frame rate : 46.875 FPS (1024 SPF)
Compression mode : Lossy
Stream size : 119 MiB (5%)
Title : Оригінальна
Language : Ukrainian
Default : Yes
Forced : No

Menu
00:00:00.000 : uk:Частина 1
00:03:41.875 : uk:Частина 2
00:11:26.040 : uk:Частина 3
00:15:56.830 : uk:Частина 4
00:22:55.788 : uk:Частина 5
00:29:07.621 : uk:Частина 6
00:37:56.971 : uk:Частина 7
00:44:11.996 : en:Частина 8
00:52:09.204 : uk:Частина 9
00:58:20.329 : uk:Частина 10
01:06:22.704 : uk:Частина 11
01:10:32.536 : uk:Частина 12
01:17:49.493 : uk:Частина 13
Скріншоти:


Золотий реліз (завантажене не впливає на рейтинг)
 Трекер:    Зареєстрований   

Завантажити / скачати український мультфільм



відео для новачків



 Зареєстрований:   2020-02-14 15:48
 Розмір:   2.56 GB 
 Оцінка мультфільму:   9.2/10 (Голосів: 15)
   
svoboda181 
Поважний учасник


З нами з: 06.01.10
Востаннє: 25.02.20
Повідомлень: 240

2020-02-14 21:10  
Існує повністю український відеоряд і болгарська, англійська відеодоріжки та субтитри для порівняння?

Український дубляж жахливий – суржик forever!

Xander78 
Частий відвідувач


З нами з: 03.11.13
Востаннє: 15.02.20
Повідомлень: 30

2020-02-15 10:13  
svoboda181 написано:
Український дубляж жахливий – суржик forever!


Український дубляж українського мультика??? Чи я щось не розумію?

svoboda181 
Поважний учасник


З нами з: 06.01.10
Востаннє: 25.02.20
Повідомлень: 240

2020-02-15 14:07  
Xander78
В кінці 2016 р., на початку 2017 року його показували в США з трошки іншою відеонарізкою та в американському озвучені. Згодом створили русифікований варіант для показу на півострові Крим, газопромії та в кінотеатрах терористично-сепаратистських угрупуваннях ДНР і ЛНР і потім, як завжди, щоб "ми" мовчали, кинуто "укрАїнське" озвучення, яке бажає бути кращим.

Ваш часовий пояс: GMT + 2 Години

Нова тема   Відповісти