Клара та Чарівний Дракон (2019) AVC

Нові коментарі

Нова тема   Відповісти
Автор Повідомлення
sergiyko.5 
VIP


З нами з: 25.02.16
Востаннє: 24.02.20
Повідомлень: 2949

2020-02-14 14:47  
Всі одноіменні релізи на трекері

Клара та Чарівний Дракон (2019) AVC


Клара та Чарівний Дракон (2019) AVC

Жанр: пригоди, комедія
Країна: Україна
Компанія: Image Pictures
Режисер: Олександр Клименко

Сюжет:
Коли в тобі прихована незвідана сила - ти готовий на все. Дівчина Клара живе у маленькому будиночку разом з трьома дивакуватими мавпочками і навіть не підозрює, що життя готує їй виклик. Раз на тисячу років в казковому лісі з’являється чарівний Дракон, який має надзвичайні здібності. За його чарами розпочали полювання Сили Зла, але Клара разом з двома друзями життєрадісним Єнотом і буркотливим Гномом, вирішують врятувати маленького Дракона і повернути його додому. Під час мандрівки друзі дізнаються, що Сили Зла насправді полюють не тільки на Дракона, а також на Клару! Чим закінчаться пригоди і ким насправді є лісова дівчина Клара.




Тривалість: 01:26:59
Якість:

Відео: кодек: розмір кадру: 1024 х 426 бітрейт: 1700 кб/с
Аудіо: мова: українська переклад: оригінал кодек: 2.0 бітрейт: 192 кб/с
Про файл:
General
Unique ID : 177100955631330144257033713758165578763 (0x853C6742CC223EABED05436A6AE4B40B)
Complete name : D:\Documents\Torrents\MULTSER_2\Клара та Чарівний Дракон.2019..
Format :
Format version : Version 4
File size : 1.14 GiB
Duration : 1 h 26 min
Overall bit rate : 1 874 kb/s
Movie name : Клара та Чарівний Дракон 2019 by sergiyko
Encoded date : UTC 2020-02-14 12:42:42
Writing application : v42.0.0 ('Overtime') 64-bit
Writing library : libebml v1.3.10 + v1.5.2
Cover : Yes
Attachments : cover.jpeg

Video
ID : 1
Format : AVC
Format/Info : Advanced Video Codec
Format profile : [email protected]
Format settings : CABAC / 10 Ref Frames
Format settings, CABAC : Yes
Format settings, Reference : 10 frames
Codec ID : V_MPEG4/ISO/AVC
Duration : 1 h 26 min
Bit rate : 1 679 kb/s
Width : 1 024 pixels
Height : 426 pixels
Display aspect ratio : 2.40:1
Frame rate mode : Variable
Frame rate : 23.841 FPS
Color space : YUV
Chroma subsampling : 4:2:0
Bit depth : 8 bits
Scan type : Progressive
Bits/(Pixel*Frame) : 0.161
Stream size : 1.02 GiB (90%)
Title : Клара та Чарівний Дракон 2019
Writing library : core 157 r2970 5493be8
Encoding settings : cabac=1 / ref=10 / deblock=1:0:0 / analyse=0x3:0x133 / me=umh / subme=10 / psy=1 / psy_rd=1.00:0.00 / mixed_ref=1 / me_range=24 / chroma_me=1 / trellis=2 / 8x8dct=1 / cqm=0 / deadzone=21,11 / fast_pskip=1 / chroma_qp_offset=-2 / threads=13 / lookahead_threads=2 / sliced_threads=0 / nr=0 / decimate=1 / interlaced=0 / bluray_compat=0 / constrained_intra=0 / bframes=8 / b_pyramid=2 / b_adapt=2 / b_bias=0 / direct=3 / weightb=1 / open_gop=0 / weightp=2 / keyint=250 / keyint_min=24 / scenecut=40 / intra_refresh=0 / rc_lookahead=60 / rc=crf / mbtree=1 / crf=20.0 / qcomp=0.60 / qpmin=0 / qpmax=69 / qpstep=4 / ip_ratio=1.40 / aq=1:1.00
Language : Ukrainian
Default : Yes
Forced : No

Audio
ID : 2
Format : LC
Format/Info : Advanced Audio Codec Low Complexity
Codec ID : A_AAC-2
Duration : 1 h 26 min
Bit rate : 192 kb/s
Channel(s) : 2 channels
Channel layout : L R
Sampling rate : 48.0 kHz
Frame rate : 46.875 FPS (1024 SPF)
Compression mode : Lossy
Stream size : 119 MiB (10%)
Title : Оригінальна
Language : Ukrainian
Default : Yes
Forced : No

Menu
00:00:00.000 : :Частина 1
00:03:41.875 : :Частина 2
00:11:26.040 : :Частина 3
00:15:56.830 : :Частина 4
00:22:55.788 : :Частина 5
00:29:07.621 : :Частина 6
00:37:56.971 : :Частина 7
00:44:11.996 : :Частина 8
00:52:09.204 : :Частина 9
00:58:20.329 : :Частина 10
01:06:22.704 : :Частина 11
01:10:32.536 : :Частина 12
01:17:49.493 : :Частина 13
Скріншоти:


 Трекер:    Зареєстрований   

Завантажити / скачати український мультфільм



відео для новачків



 Зареєстрований:   2020-02-14 14:47
 Розмір:   1.14 GB 
 Оцінка мультфільму:   8.9/10 (Голосів: 8)
   
Ваш часовий пояс: GMT + 2 Години

Нова тема   Відповісти