Титан: Після загибелі Землі / Titan A.E. (2000) 1080p H.265 2xUkr/Eng | Sub Eng

Нові коментарі

Нова тема   Відповісти
Останній раз роздавалося xslim (2020-02-28)
Автор Повідомлення
xslim 
Відео Гуртом - фільмокрай
Відео Гуртом - фільмокрай


З нами з: 04.03.09
Востаннє: 27.02.20
Повідомлень: 1100

2020-02-14 14:29  
Титан: Після загибелі Землі / Titan A.E. (2000) 1080p H.265 2xUkr/Eng | Sub Eng

Титан: Після загибелі Землі / Titan A.E. (2000) 1080p H.265 2xUkr/Eng | Sub Eng


Жанр: анімація, пригодницький, фантастика, сімейний
Країна: США



Кінокомпанія: David Kirschner Productions, Fox Animation Studios, Twentieth Century Fox Film Corporation
Режисер: Дон Блат, Ґарі Ґолдман
Актори: Метт Деймон, Дрю Берімор, Білл Пулман, Джим Брюер, Джанін Ґарофало, Натан Лейн та інші...

Сюжет:
У 3028 р. Дреджі - аґресивна інопланетна раса знищила Землю. П'ятнадцять років потому - юний Кейл дізнається, що він володіє генетично запрограмованою картою на Титан - космічний супер-корабель, в якому поміщений секрет порятунку людства. Кейл потрапляє в небезпечну подорож через Всесвіт у складі команди космічного корабля «Валькірія», битви із злими Дреджамі, і відновлення Титану - останньої надії всього людства.


Тривалість: 01:34:59
Якість:
Відео:
кодек: H.265
розмір кадру: 1916 х 816
бітрейт: 3501 кб/с

Аудіо # 1:
мова: українська
переклад: багатоголосий закадровий | Новий канал
кодек: 2.0
бітрейт: 192 кб/с
озвучено як: Титан: Після Землі

Аудіо # 2:
мова: українська
переклад: багатоголосий закадровий | 2+2
кодек: 2.0
бітрейт: 192 кб/с
озвучено як: Титан: Після загибелі Землі

Аудіо # 3:
мова: англійська
переклад: оригінал
кодек: 5.1
бітрейт: 384 кб/с

Субтитри:
мова: англійська
тип: програмні (м'які)
формат: *.srt
Info
General
Unique ID : 46038895793964285015793737106925863673 (0x22A2C4D02EB462FD7763DF4FD258C2F9)
Complete name : D:\Titan A.E. (2000) [2xUkr,Eng] H.265 1080p [toloka.to] by Palamar.
Format :
Format version : Version 4
File size : 2.83 GiB
Duration : 1 h 34 min
Overall bit rate : 4 271 kb/s
Encoded date : UTC 2020-02-14 10:29:41
Writing application : v43.0.0 ('The Quartermaster') 64-bit
Writing library : libebml v1.3.10 + v1.5.2

Video
ID : 1
Format : HEVC
Format/Info : High Efficiency Video Coding
Format profile : Main [email protected]@Main
Codec ID : V_MPEGH/ISO/HEVC
Duration : 1 h 34 min
Bit rate : 3 501 kb/s
Width : 1 916 pixels
Height : 816 pixels
Display aspect ratio : 2.35:1
Frame rate mode : Constant
Frame rate : 23.976 (24000/1001) FPS
Color space : YUV
Chroma subsampling : 4:2:0
Bit depth : 10 bits
Bits/(Pixel*Frame) : 0.093
Stream size : 2.32 GiB (82%)
Writing library : x265 3.2.1+3-b4b2ecac21f6:[Windows][GCC 9.2.0][64 bit] 10bit
Encoding settings : cpuid=1111039 / frame-threads=2 / numa-pools=4 / wpp / no-pmode / no-pme / no-psnr / no-ssim / log-level=2 / input-csp=1 / input-res=1916x816 / interlace=0 / total-frames=136644 / level-idc=0 / high-tier=1 / uhd-bd=0 / ref=5 / no-allow-non-conformance / no-repeat-headers / annexb / no-aud / no-hrd / info / hash=0 / no-temporal-layers / open-gop / min-keyint=23 / keyint=250 / gop-lookahead=0 / bframes=8 / b-adapt=2 / b-pyramid / bframe-bias=0 / rc-lookahead=80 / lookahead-slices=0 / scenecut=40 / radl=0 / no-splice / no-intra-refresh / ctu=64 / min-cu-size=8 / rect / no-amp / max-tu-size=32 / tu-inter-depth=3 / tu-intra-depth=3 / limit-tu=4 / rdoq-level=2 / dynamic-rd=0.00 / no-ssim-rd / signhide / no-tskip / nr-intra=0 / nr-inter=0 / no-constrained-intra / no-strong-intra-smoothing / max-merge=4 / limit-refs=1 / limit-modes / me=3 / subme=5 / merange=57 / temporal-mvp / no-hme / weightp / weightb / no-analyze-src-pics / deblock=-3:-3 / no-sao / no-sao-non-deblock / rd=6 / selective-sao=0 / no-early-skip / rskip / no-fast-intra / no-tskip-fast / no-cu-lossless / b-intra / no-splitrd-skip / rdpenalty=0 / psy-rd=2.00 / psy-rdoq=1.00 / no-rd-refine / no-lossless / cbqpoffs=0 / crqpoffs=0 / rc=abr / bitrate=3500 / qcomp=0.60 / qpstep=4 / stats-write=0 / stats-read=2 / cplxblur=20.0 / qblur=0.5 / ipratio=1.40 / pbratio=1.30 / aq-mode=3 / aq-strength=1.00 / cutree / zone-count=0 / no-strict-cbr / qg-size=32 / no-rc-grain / qpmax=69 / qpmin=0 / no-const-vbv / sar=0 / overscan=0 / videoformat=5 / range=0 / colorprim=2 / transfer=2 / colormatrix=1 / chromaloc=0 / display-window=0 / cll=0,0 / min-luma=0 / max-luma=1023 / log2-max-poc-lsb=8 / vui-timing-info / vui-hrd-info / slices=1 / no-opt-qp-pps / no-opt-ref-list-length-pps / no-multi-pass-opt-rps / scenecut-bias=0.05 / no-opt-cu-delta-qp / no-aq-motion / no-hdr / no-hdr-opt / no-dhdr10-opt / no-idr-recovery-sei / analysis-reuse-level=5 / scale-factor=0 / refine-intra=0 / refine-inter=0 / refine-mv=1 / refine-ctu-distortion=0 / no-limit-sao / ctu-info=0 / no-lowpass-dct / refine-analysis-type=0 / copy-pic=1 / max-ausize-factor=1.0 / no-dynamic-refine / no-single-sei / no-hevc-aq / no-svt / no-field / qp-adaptation-range=1.00
Default : Yes
Forced : No
Color range : Limited
Matrix coefficients : BT.709

Audio #1
ID : 2
Format : AC-3
Format/Info : Audio Coding 3
Commercial name : Dolby Digital
Codec ID : A_AC3
Duration : 1 h 34 min
Bit rate mode : Constant
Bit rate : 192 kb/s
Channel(s) : 2 channels
Channel layout : L R
Sampling rate : 48.0 kHz
Frame rate : 31.250 FPS (1536 SPF)
Compression mode : Lossy
Stream size : 130 MiB (4%)
Title : Новий канал
Language : Ukrainian
Service kind : Complete Main
Default : Yes
Forced : Yes

Audio #2
ID : 3
Format : AC-3
Format/Info : Audio Coding 3
Commercial name : Dolby Digital
Codec ID : A_AC3
Duration : 1 h 34 min
Bit rate mode : Constant
Bit rate : 192 kb/s
Channel(s) : 2 channels
Channel layout : L R
Sampling rate : 48.0 kHz
Frame rate : 31.250 FPS (1536 SPF)
Compression mode : Lossy
Stream size : 130 MiB (4%)
Title : 2+2
Language : Ukrainian
Service kind : Complete Main
Default : No
Forced : No

Audio #3
ID : 4
Format : AC-3
Format/Info : Audio Coding 3
Commercial name : Dolby Digital
Codec ID : A_AC3
Duration : 1 h 34 min
Bit rate mode : Constant
Bit rate : 384 kb/s
Channel(s) : 6 channels
Channel layout : L R C LFE Ls Rs
Sampling rate : 48.0 kHz
Frame rate : 31.250 FPS (1536 SPF)
Compression mode : Lossy
Stream size : 261 MiB (9%)
Title : Оригінал
Language : English
Service kind : Complete Main
Default : No
Forced : No

Text
ID : 5
Format : UTF-8
Codec ID : S_TEXT/UTF8
Codec ID/Info : UTF-8 Plain Text
Duration : 1 h 24 min
Bit rate : 45 b/s
Count of elements : 777
Stream size : 28.1 KiB (0%)
Language : English
Default : No
Forced : No

Menu
00:00:00.000 : en:Prologue
00:01:51.744 : en:The Drej Attack
00:06:36.744 : en:15 Years Later
00:12:17.744 : en:A Human Recruiter
00:14:41.744 : en:A Father's Legacy
00:15:55.744 : en:Being Chased
00:20:52.744 : en:Being Healed
00:24:32.744 : en:Navigation
00:26:49.744 : en:Sesharrim
00:35:56.744 : en:Captured
00:40:37.744 : en:On A Trade Ship
00:43:04.744 : en:Breaking Free
00:52:09.744 : en:Unnatural Allies
00:56:34.744 : en:On New Bangkok
00:58:50.744 : en:A Ship
01:02:31.744 : en:In The Ice Ring
01:11:42.744 : en:A Message From Dad
01:15:05.744 : en:Fight For The Ring
01:22:11.744 : en:Building A Planet
01:26:41.744 : en:End Titles
Скріншоти
Реліз:
&

Робота зі звуком: taraskill1
Запис із ТБ: xSlim


Срібний реліз (на рейтинг впливає 50% завантаженого)
 Трекер:    Зареєстрований   

Завантажити / скачати мультфільм українською



відео для новачків



 Зареєстрований:   2020-02-14 14:29
 Розмір:   2.83 GB 
 Оцінка мультфільму:   10/10 (Голосів: 4)
   
Інші релізи
xslim 
Відео Гуртом - фільмокрай
Відео Гуртом - фільмокрай


З нами з: 04.03.09
Востаннє: 27.02.20
Повідомлень: 1100

2020-02-14 15:17  
Мульфільм можна завантажити також і тут - https://drive.google.com/open?id=1g2J5aXlpA71AogvkdQ5oWM8L74PKb5rU але вже 1080p 7,13 ГБ
Ваш часовий пояс: GMT + 2 Години

Нова тема   Відповісти