Побачення моєї мрії / Employee of the Month (2006) Remux 1080p Ukr/Eng | Sub Eng

Нові коментарі

Нова тема   Відповісти
Автор Повідомлення
Bandit 01 
Частий відвідувач


З нами з: 22.07.11
Востаннє: 18.09.20
Повідомлень: 40

2020-02-13 15:34  
Побачення моєї мрії / Employee of the Month (2006) Remux 1080p Ukr/Eng | Sub Eng

Побачення моєї мрії / Employee of the Month (2006) Remux 1080p Ukr/Eng | Sub Eng
Оригінальна обкладинка:


Жанр: комедія, мелодрама
Країна: США



Кінокомпанія: Lions Gate Films
Режисер: Грег Кулідж
Актори: Дейн Кук, Джессіка Сімпсон, Декс Шепард, Енді Дік, Тім Беглі, Брайан Джордж, Ефрен Рамірез, Марселло Тедфорд, Денні Вудберн, Харланд Вільямс

Сюжет:
Вся чоловіча половина магазину, де працюють Зак і Вінс, втрачає голову від нової співробітниці - чарівної касирки Емі. Але як звернути на себе увагу цієї чарівної блондинки? Є тільки один безпрограшний варіант: отримати почесне звання "Співробітника місяця". Для досягнення жаданої мети Зак і Вінс прикладуть всі зусилля, що стане причиною безлічі комічних ситуацій і кумедних пригод. Так кому ж дістанеться серце красуні?


Тривалість: 01:48:07
Якість: Remux 1080p
Відео:
кодек:
розмір кадру: 1920 х 1080
бітрейт: 18,2 Мб/с

Аудіо # 1:
мова: українська
переклад: багатоголосий закадровий
кодек: 2.0
бітрейт: 192 кб/с
Інформація про озвучення:
Ролі озвучили: Володимир Терещук, Анатолій Пашнін, Дмитро Терещук (можл.), Світлана Шекера (можл.)
Аудіо # 2:
мова: англійська
переклад: оригінал
кодек: 5.1
бітрейт: 640 кб/с

Аудіо # 3:
мова: англійська
переклад: оригінал
кодек: -HD HRA 6.1
бітрейт: 3039 кб/с

Субтитри:
мова: англійська
тип: програмні (м'які)
формат: *.srt
Info
Код:
General
Complete name               : E:\Employee of the Month (2006) [Ukr,Eng] Remux 1080p [Hurtom].
Format                      :
Format version              : Version 4
File size                   : 16.7 GiB
Duration                    : 1 h 48 min
Overall bit rate            : 22.1 Mb/s
Movie name                  : Employee of the Month.2006.Remux.1080p.[denis100]
Encoded date                : UTC 2020-02-11 15:13:21
Writing application         : v43.0.0 ('The Quartermaster') 64-bit
Writing library             : libebml v1.3.10 + v1.5.2

Video
ID                          : 1
Format                      : AVC
Format/Info                 : Advanced Video Codec
Format profile              : [email protected]
Format settings             : CABAC / 3 Ref Frames
Format settings, CABAC      : Yes
Format settings, Reference  : 3 frames
Format settings, GOP        : M=3, N=24
Codec ID                    : V_MPEG4/ISO/AVC
Duration                    : 1 h 48 min
Bit rate                    : 18.2 Mb/s
Width                       : 1 920 pixels
Height                      : 1 080 pixels
Display aspect ratio        : 16:9
Frame rate mode             : Constant
Frame rate                  : 23.976 (24000/1001) FPS
Color space                 : YUV
Chroma subsampling          : 4:2:0
Bit depth                   : 8 bits
Scan type                   : Progressive
Bits/(Pixel*Frame)          : 0.366
Stream size                 : 13.7 GiB (82%)
Title                       : Employee of the Month.2006.Remux.1080p.[denis100]
Language                    : English
Default                     : Yes
Forced                      : No

Audio #1
ID                          : 2
Format                      : AC-3
Format/Info                 : Audio Coding 3
Commercial name             : Dolby Digital
Codec ID                    : A_AC3
Duration                    : 1 h 48 min
Bit rate mode               : Constant
Bit rate                    : 192 kb/s
Channel(s)                  : 2 channels
Channel layout              : L R
Sampling rate               : 48.0 kHz
Frame rate                  : 31.250 FPS (1536 SPF)
Bit depth                   : 16 bits
Compression mode            : Lossy
Delay relative to video     : -9 ms
Stream size                 : 148 MiB (1%)
Title                       : K1
Language                    : Ukrainian
Service kind                : Complete Main
Default                     : Yes
Forced                      : No

Audio #2
ID                          : 3
Format                      : AC-3
Format/Info                 : Audio Coding 3
Commercial name             : Dolby Digital
Codec ID                    : A_AC3
Duration                    : 1 h 48 min
Bit rate mode               : Constant
Bit rate                    : 640 kb/s
Channel(s)                  : 6 channels
Channel layout              : L R C LFE Ls Rs
Sampling rate               : 48.0 kHz
Frame rate                  : 31.250 FPS (1536 SPF)
Bit depth                   : 16 bits
Compression mode            : Lossy
Stream size                 : 495 MiB (3%)
Title                       : ENG_AC3
Language                    : English
Service kind                : Complete Main
Default                     : No
Forced                      : No

Audio #3
ID                          : 4
Format                      : ES XXCH XBR
Format/Info                 : Digital Theater Systems
Commercial name             : -HD High Resolution Audio
Codec ID                    : A_DTS
Duration                    : 1 h 48 min
Bit rate mode               : Constant
Bit rate                    : 3 039 kb/s
Channel(s)                  : 7 channels
Channel layout              : C L R Ls Rs LFE Cb
Sampling rate               : 48.0 kHz
Frame rate                  : 93.750 FPS (512 SPF)
Bit depth                   : 24 bits
Compression mode            : Lossy
Delay relative to video     : -9 ms
Stream size                 : 2.30 GiB (14%)
Title                       : ENG -HD
Language                    : English
Default                     : No
Forced                      : No

Text
ID                          : 5
Format                      : UTF-8
Codec ID                    : S_TEXT/UTF8
Codec ID/Info               : UTF-8 Plain Text
Duration                    : 1 h 40 min
Bit rate                    : 70 b/s
Count of elements           : 1384
Stream size                 : 52.1 KiB (0%)
Language                    : English
Default                     : No
Forced                      : No

Menu
00:00:00.000                : en:Chapter 01
00:02:36.865                : en:Chapter 03
00:06:10.953                : en:Chapter 04
00:08:24.921                : en:Chapter 05
00:09:03.918                : en:Chapter 06
00:14:03.425                : en:Chapter 07
00:18:10.130                : en:Chapter 08
00:21:18.193                : en:Chapter 09
00:23:45.674                : en:Chapter 10
00:26:24.666                : en:Chapter 11
00:27:56.549                : en:Chapter 12
00:31:37.311                : en:Chapter 13
00:32:36.204                : en:Chapter 14
00:33:58.161                : en:Chapter 15
00:35:46.519                : en:Chapter 16
00:38:16.377                : en:Chapter 17
00:41:21.937                : en:Chapter 18
00:43:17.803                : en:Chapter 19
00:49:04.399                : en:Chapter 20
00:52:19.803                : en:Chapter 21
00:55:02.757                : en:Chapter 22
00:56:50.490                : en:Chapter 23
01:00:06.394                : en:Chapter 24
01:04:44.004                : en:Chapter 25
01:07:09.358                : en:Chapter 26
01:10:11.331                : en:Chapter 27
01:13:17.643                : en:Chapter 28
01:19:58.877                : en:Chapter 29
01:21:40.395                : en:Chapter 30
01:25:13.024                : en:Chapter 31
01:27:24.238                : en:Chapter 32
01:29:42.835                : en:Chapter 33
01:31:33.738                : en:Chapter 34
01:36:43.297                : en:Chapter 35
01:42:08.580                : en:Chapter 36
01:48:07.313                : en:Chapter 37
Скріншоти



Джерело:
Особиста оцінка: 10 - без зайвих вагань рекомендую всім!


Золотий реліз (завантажене не впливає на рейтинг)
 Трекер:    Зареєстрований   

Завантажити / скачати фільм українською



відео для новачків



 Зареєстрований:   2020-02-13 15:34
 Розмір:   16.66 GB 
 Оцінка фільму:   8.2/10 (Голосів: 5)
   
Інші релізи
Ваш часовий пояс: GMT + 2 Години

Нова тема   Відповісти