Астерікс в Британії / Asterix chez les Bretons (1986) 1080p Ukr/Fre | Sub Eng

Нові коментарі

Нова тема   Відповісти
Автор Повідомлення
MakRA 
VIP


З нами з: 10.11.18
Востаннє: 06.03.21
Повідомлень: 1193

2020-02-13 12:19  
Астерікс в Британії / Asterix chez les Bretons (Asterix in Britain) (1986) 1080p Ukr/Fre | Sub Eng


Український постер:

Жанр: анімація, пригодницький, комедія
Країна: Франція



Кінокомпанія: Gaumont International, Dargaud Films, Gutenberghus
Режисер: Піно Ван Ламсвеерде [Pino Van Lamsweerde]
Актори: Роже Карель [Roger Carel], П'єр Торнадо [Pierre Tornade], Ґрегем Бушнел [Graham Bushnell], П'єр Монді [Pierre Mondy], Моріс Ріш [Maurice Risch], Ніколя Сільберг [Nicolas Silberg], Альбер Ож'є [Albert Augier], Пол Бісціліа [Paul Bisciglia], Берті Кортес [Bertie Cortez]

Сюжет:
Астерікс з своїми друзями знову буде рятувати світ. Цього разу вони допомагатимуть Британії воювати проти римських легіонів на чолі з Юлієм Цезарем. Британія не один раз допомагала мужнім галлам протистояти римському імператору. Тепер настав час галлам допомогти британським друзям.


Тривалість: 01:18:38
Якість: 1080p
Відео:
кодек:
розмір кадру: 1800 х 1080
бітрейт: 12,4 Mб/с

Аудіо # 1:
мова: українська
переклад: багатоголосий закадровий
кодек: 2.0
бітрейт: 192 кб/с
примітка: український переклад зроблено на німецький дубляж

Аудіо # 2:
мова: французька
переклад: оригінал
кодек: 2.0
бітрейт: 768 кб/с

Аудіо # 3:
мова: французька
переклад: оригінал
кодек: 2.0
бітрейт: 192 кб/с

Субтитри: (Full)
мова: англійська
тип: програмні (м'які)
формат: *.srt

Збережено оригінальні розділи, як на Blu-ray.
Info
General
Unique ID : 184819023961179051555961820181616875543 (0x8B0AD968B48CC985FF6F6B9771BF5817)
Complete name : H:\+ Мультфільми в HD\Asterix chez les Bretons (Asterix in Britain) (1986) 1080p UkrFre Sub Eng [Hurtom].
Format :
Format version : Version 4
File size : 7.42 GiB
Duration : 1 h 18 min
Overall bit rate : 13.5 Mb/s
Movie name : Астерікс в Британії / Asterix chez les Bretons (Asterix in Britain) (1986) 1080p Ukr/Fre | Sub Eng [Hurtom]
Encoded date : UTC 2020-02-13 09:21:39
Writing application : v25.0.0 ('Prog Noir') 64-bit
Writing library : libebml v1.3.6 + v1.4.9
Cover : Yes
Attachments : cover.jpg

Video
ID : 1
Format : AVC
Format/Info : Advanced Video Codec
Format profile : [email protected]
Format settings : CABAC / 4 Ref Frames
Format settings, CABAC : Yes
Format settings, Reference fra : 4 frames
Codec ID : V_MPEG4/ISO/AVC
Duration : 1 h 18 min
Bit rate : 12.4 Mb/s
Width : 1 800 pixels
Height : 1 080 pixels
Display aspect ratio : 5:3
Frame rate mode : Constant
Frame rate : 23.976 (24000/1001) FPS
Color space : YUV
Chroma subsampling : 4:2:0
Bit depth : 8 bits
Scan type : Progressive
Bits/(Pixel*Frame) : 0.265
Stream size : 6.78 GiB (91%)
Title : Asterix chez les Bretons (Asterix in Britain) (1986) 1080p Ukr/Fre | Sub Eng [Hurtom]
Writing library : core 120 r2164 da19765
Encoding settings : cabac=1 / ref=4 / deblock=1:-1:-1 / analyse=0x3:0x133 / me=tesa / subme=11 / psy=1 / psy_rd=1.08:0.00 / mixed_ref=1 / me_range=24 / chroma_me=1 / trellis=2 / 8x8dct=1 / cqm=0 / deadzone=21,11 / fast_pskip=1 / chroma_qp_offset=-2 / threads=12 / sliced_threads=0 / nr=0 / decimate=1 / interlaced=0 / bluray_compat=0 / constrained_intra=0 / bframes=8 / b_pyramid=2 / b_adapt=2 / b_bias=0 / direct=3 / weightb=1 / open_gop=0 / weightp=2 / keyint=240 / keyint_min=23 / scenecut=40 / intra_refresh=0 / rc_lookahead=90 / rc=2pass / mbtree=1 / bitrate=12350 / ratetol=1.0 / qcomp=0.60 / qpmin=10 / qpmax=69 / qpstep=4 / cplxblur=20.0 / qblur=0.5 / ip_ratio=1.40 / aq=2:0.50
Language : Ukrainian
Default : Yes
Forced : Yes

Audio #1
ID : 2
Format : AC-3
Format/Info : Audio Coding 3
Commercial name : Dolby Digital
Codec ID : A_AC3
Duration : 1 h 18 min
Bit rate mode : Constant
Bit rate : 192 kb/s
Channel(s) : 2 channels
Channel layout : L R
Sampling rate : 48.0 kHz
Frame rate : 31.250 FPS (1536 SPF)
Compression mode : Lossy
Stream size : 108 MiB (1%)
Title : MVO [НОВИЙ] 2.0
Language : Ukrainian
Service kind : Complete Main
Default : Yes
Forced : Yes

Audio #2
ID : 3
Format :
Format/Info : Digital Theater Systems
Codec ID : A_DTS
Duration : 1 h 18 min
Bit rate mode : Constant
Bit rate : 768 kb/s
Channel(s) : 2 channels
Channel layout : L R
Sampling rate : 48.0 kHz
Frame rate : 93.750 FPS (512 SPF)
Bit depth : 16 bits
Compression mode : Lossy
Stream size : 432 MiB (6%)
Title : Original -HD MA 2.0
Language : French
Default : No
Forced : No

Audio #3
ID : 4
Format : AC-3
Format/Info : Audio Coding 3
Commercial name : Dolby Digital
Codec ID : A_AC3
Duration : 1 h 18 min
Bit rate mode : Constant
Bit rate : 192 kb/s
Channel(s) : 2 channels
Channel layout : L R
Sampling rate : 48.0 kHz
Frame rate : 31.250 FPS (1536 SPF)
Compression mode : Lossy
Stream size : 108 MiB (1%)
Title : Original 2.0
Language : French
Service kind : Complete Main
Default : No
Forced : No

Text
ID : 5
Format : UTF-8
Codec ID : S_TEXT/UTF8
Codec ID/Info : UTF-8 Plain Text
Duration : 1 h 12 min
Bit rate : 54 b/s
Count of elements : 595
Stream size : 28.9 KiB (0%)
Title : Eng (Full)
Language : English
Default : No
Forced : No

Menu
00:00:00.000 : en:Chapter 1
00:06:10.370 : en:Chapter 2
00:12:49.808 : en:Chapter 3
00:19:48.394 : en:Chapter 4
00:25:24.520 : en:Chapter 5
00:34:44.081 : en:Chapter 6
00:40:33.097 : en:Chapter 7
00:46:54.728 : en:Chapter 8
00:53:00.635 : en:Chapter 9
00:59:34.402 : en:Chapter 10
01:06:06.963 : en:Chapter 11
01:12:45.734 : en:Chapter 12
Скріншоти
Джерело: &
Подяка п. igrik09 за запис звуку з ТБ і п. Breniak за синхронізацію звуку
Особиста оцінка: 10 - без зайвих вагань рекомендую всім!


Срібний реліз (на рейтинг впливає 50% завантаженого)
 Трекер:    Зареєстрований   

Завантажити / скачати мультфільм українською



відео для новачків



 Зареєстрований:   2020-02-13 12:19
 Розмір:   7.42 GB 
 Оцінка мультфільму:   9.5/10 (Голосів: 10)
   
Інші релізи
Ваш часовий пояс: GMT + 2 Години

Нова тема   Відповісти