Підпільна арена / Обговоренню не підлягає 4 / Без правил 4 / Boyka: Undisputed IV (2016) Remux 1080p Ukr/Eng | Sub Eng

Нові коментарі

Нова тема   Відповісти
Останній раз роздавалося coltojkee (2020-08-27)
Автор Повідомлення
Documentalist 
Забанено
Забанено


З нами з: 04.06.17
Востаннє: 21.03.20
Повідомлень: 107

2020-02-13 12:17  
Підпільна арена / Обговоренню не підлягає 4 / Без правил 4 / Boyka: Undisputed IV (2016) Remux 1080p Ukr/Eng | Sub Eng

Підпільна арена / Обговоренню не підлягає 4 / Без правил 4 / Boyka: Undisputed IV (2016) Remux 1080p Ukr/Eng | Sub Eng


Жанр: Бойовик, екшн, кримінальний, драма, спорт
Країна: США, Болгарія



Кінокомпанія: Nu Boyana Viburno
Режисер: Тодор Чапканов
Актори: Скот Едкінс, Теодора Духовнікова, Алон Абутбул, Юліан Верги, Брахім Ачаббаке, Пол Чахіді, Валентин Ганев, Владо Мажанаов, Мартін Форд

Сюжет:
Юрій Бойка знову повертається у велику гру, коли у дружини бійця, якого він випадково вбив, починаються проблеми. Щоб допомогти їй, Бойка повертається на ринг - і на цей раз йому є, за що битися. Щоб врятувати жінку, він повинен перемогти в серії матчів на рингу, в яких його противниками стануть найнебезпечніші бійці.


Тривалість: 01:30:13
Якість: Remux
Відео:
кодек:
розмір кадру: 1920х1080
бітрейт: 31.7 Mб/с

Аудіо:
мова: українська
переклад: багатоголосий закадровий
кодек: 2.0
бітрейт: 160 кб/с

Аудіо: # 2:
мова: англійська
переклад: оригінал
кодек: -HD MA 5.1
бітрейт: 3752 кб/с

Субтитри:
мова: англійська
тип: програмні (м'які)
формат: *.srt
Info
Format :
Format version : Version 4
File size : 22.5 GiB
Duration : 1 h 30 min
Overall bit rate mode : Variable
Overall bit rate : 35.6 Mb/s
Movie name : Обговоренню не підлягає 4 (Boyka: Undisputed IV) 2016 Remux (1080p) [Hurtom]
Encoded date : UTC 2020-02-13 00:49:16
Writing application : v7.8.0 ('River Man') 32bit built on Mar 27 2015 16:18:02
Writing library : libebml v1.3.1 + v1.4.2
Cover : Yes
Attachments : Cover.jpg

Video
ID : 1
Format : AVC
Format/Info : Advanced Video Codec
Format profile : [email protected]
Format settings : CABAC / 4 Ref Frames
Format settings, CABAC : Yes
Format settings, Reference : 4 frames
Codec ID : V_MPEG4/ISO/AVC
Duration : 1 h 30 min
Bit rate mode : Variable
Bit rate : 31.7 Mb/s
Maximum bit rate : 37.0 Mb/s
Width : 1 920 pixels
Height : 1 080 pixels
Display aspect ratio : 16:9
Frame rate mode : Constant
Frame rate : 23.976 (24000/1001) FPS
Color space : YUV
Chroma subsampling : 4:2:0
Bit depth : 8 bits
Scan type : Progressive
Bits/(Pixel*Frame) : 0.638
Stream size : 20.0 GiB (89%)
Title : Обговоренню не підлягає 4 (Boyka: Undisputed IV) 2016 Remux (1080p) [Hurtom]
Language : Ukrainian
Default : Yes
Forced : No

Audio #1
ID : 2
Format : AC-3
Format/Info : Audio Coding 3
Commercial name : Dolby Digital
Codec ID : A_AC3
Duration : 1 h 30 min
Bit rate mode : Constant
Bit rate : 160 kb/s
Channel(s) : 2 channels
Channel layout : L R
Sampling rate : 48.0 kHz
Frame rate : 31.250 FPS (1536 SPF)
Compression mode : Lossy
Stream size : 103 MiB (0%)
Title : Новий канал
Language : Ukrainian
Service kind : Complete Main
Default : Yes
Forced : Yes

Audio #2
ID : 3
Format : XLL
Format/Info : Digital Theater Systems
Commercial name : -HD Master Audio
Codec ID : A_DTS
Duration : 1 h 30 min
Bit rate mode : Variable
Bit rate : 3 752 kb/s
Channel(s) : 6 channels
Channel layout : C L R Ls Rs LFE
Sampling rate : 48.0 kHz
Frame rate : 93.750 FPS (512 SPF)
Bit depth : 24 bits
Compression mode : Lossless
Stream size : 2.36 GiB (11%)
Title : Оригінал
Language : English
Default : No
Forced : No

Text
ID : 4
Format : UTF-8
Codec ID : S_TEXT/UTF8
Codec ID/Info : UTF-8 Plain Text
Duration : 1 h 24 min
Bit rate : 30 b/s
Count of elements : 618
Stream size : 18.9 KiB (0%)
Title : Повні
Language : English
Default : No
Forced : No

Menu
00:00:00.000 : en:Chapter 1
00:12:32.710 : en:Chapter 2
00:20:16.424 : en:Chapter 3
00:32:57.726 : en:Chapter 4
00:43:08.795 : en:Chapter 5
00:50:12.218 : en:Chapter 6
01:03:27.262 : en:Chapter 7
01:11:19.150 : en:Chapter 8
01:18:29.204 : en:Chapter 9
01:26:03.992 : en:Chapter 10
Скріншоти


Золотий реліз (завантажене не впливає на рейтинг)
 Трекер:    Зареєстрований   

Завантажити / скачати фільм українською



відео для новачків



 Зареєстрований:   2020-02-13 12:17
 Розмір:   22.47 GB 
 Оцінка фільму:   10/10 (Голосів: 1)
   
[email protected] 
Відео Гуртом - підтримка та поширення
Відео Гуртом - підтримка та поширення


З нами з: 16.06.12
Востаннє: 20.09.20
Повідомлень: 1427

2020-06-09 12:13  

Створена роздача на DC++ хабі Толока (сід "Схованка-*" 24/7)
Магніт
magnet:?xt=urn:tree:tiger:FMSVK7TMPUZZCQOCNUQCFZB6KIEFNYNIMQ3UEMI&xl=24121731210&dn=%D0%9E%D0%B1%D0%B3%D0%BE%D0%B2%D0%BE%D1%80%D0%B5%D0%BD%D0%BD%D1%8E+%D0%BD%D0%B5+%D0%BF%D1%96%D0%B4%D0%BB%D1%8F%D0%B3%D0%B0%D1%94+4+(Boyka+Undisputed+4)+2016+Remux+%5BHurtom%5D.
Або CTRL+S в клієнті і виконати пошук за хешом: FMSVK7TMPUZZCQOCNUQCFZB6KIEFNYNIMQ3UEMI

Тема на форумі та як приєднатися: https://toloka.to/t103590

Ваш часовий пояс: GMT + 2 Години

Нова тема   Відповісти