Гра в хованки / Ready or Not (2019) UHD HDR 2160p Ukr/Eng | Sub Ukr/Eng

Нові коментарі

Нова тема   Відповісти
Останній раз роздавалося anatoliy552008 (2020-09-20)
Автор Повідомлення
Documentalist 
Забанено
Забанено


З нами з: 04.06.17
Востаннє: 21.03.20
Повідомлень: 107

2020-02-12 23:42  
Гра в хованки / Ready or Not (2019) UHD HDR 2160p Ukr/Eng | Sub Ukr/Eng

Гра в хованки / Ready or Not (2019) UHD HDR 2160p Ukr/Eng | Sub Ukr/Eng


Жанр: детектив, жахи, трилер
Країна: США



Кінокомпанія: Mythology Entertainment, Vinson Films
Режисер: Меттью Беттінеллі, Тайлер Джиллетт
Актори: Самара Вівінг, Адам Броді, Марк О’Брайен, Генрі Черні, Енді МакДауелл, Мелані Скорфано, Джон Ралстон

Сюжет:
Фільм розповідає про дівчину на ім'я Грейс, яка виходить заміж за хлопця своєї мрії і з нетерпінням чекає, коли стане частиною його великої родини. Але ніч їхнього весілля приймає несподіваний оберт, коли ексцентричні родичі вирішують влаштувати на неї полювання, оскільки вірять, що якщо не принесуть її в жертву, їх спіткає жахлива біда.


Тривалість: 01:35:22
Якість:

Відео:
кодек: H.265 (HEVC)
розмір кадру: 3840х1608
бітрейт: 26.4 Mб/с
бітова глибина: 10 біт
кольоровий простір: BT.2020 (HDR)
Увага! Перед завантаженням переконайтесь, що ваш пристрій відтворення (та/або ПЗ) підтримує H.265 (HEVC)

Аудіо:
мова: українська
переклад: професійний дубльований
кодек: 2.0
бітрейт: 160 кб/с

Аудіо: # 2:
мова: англійська
переклад: оригінал
кодек: -HD MA 5.1
бітрейт: 3698 кб/с

Субтитри:
мова: українська
тип: програмні (м'які)
формат: *.srt

Субтитри # 2:
мова: англійська
тип: програмні (м'які)
формат: *.srt
Info
Format :
Format version : Version 4
File size : 20.2 GiB
Duration : 1 h 35 min
Overall bit rate mode : Variable
Overall bit rate : 30.2 Mb/s
Movie name : Гра в хованки (Ready or Not) 2019 UHD HDR 2160p [Hurtom]
Encoded date : UTC 2020-02-12 17:48:33
Writing application : v7.8.0 ('River Man') 32bit built on Mar 27 2015 16:18:02
Writing library : libebml v1.3.1 + v1.4.2
Cover : Yes
Attachments : Cover.png

Video
ID : 1
Format : HEVC
Format/Info : High Efficiency Video Coding
Format profile : Main [email protected]@High
HDR format : SMPTE ST 2086, HDR10 compatible
Codec ID : V_MPEGH/ISO/HEVC
Duration : 1 h 35 min
Bit rate : 26.4 Mb/s
Width : 3 840 pixels
Height : 1 608 pixels
Display aspect ratio : 2.40:1
Frame rate mode : Constant
Frame rate : 23.976 (24000/1001) FPS
Color space : YUV
Chroma subsampling : 4:2:0 (Type 2)
Bit depth : 10 bits
Bits/(Pixel*Frame) : 0.178
Stream size : 17.6 GiB (87%)
Title : Гра в хованки (Ready or Not) 2019 UHD HDR 2160p [Hurtom]
Writing library : x265 3.2+9-971180b100f8:[Windows][GCC 9.2.1][64 bit] 10bit
Encoding settings : cpuid=1111039 / frame-threads=4 / numa-pools=28 / wpp / no-pmode / no-pme / no-psnr / no-ssim / log-level=2 / input-csp=1 / input-res=3840x1608 / interlace=0 / total-frames=137222 / level-idc=51 / high-tier=1 / uhd-bd=0 / ref=4 / no-allow-non-conformance / repeat-headers / annexb / aud / hrd / info / hash=0 / no-temporal-layers / no-open-gop / min-keyint=24 / keyint=240 / gop-lookahead=0 / bframes=4 / b-adapt=2 / b-pyramid / bframe-bias=0 / rc-lookahead=25 / lookahead-slices=4 / scenecut=40 / radl=0 / no-splice / no-intra-refresh / ctu=64 / min-cu-size=8 / rect / no-amp / max-tu-size=32 / tu-inter-depth=1 / tu-intra-depth=1 / limit-tu=0 / rdoq-level=2 / dynamic-rd=0.00 / no-ssim-rd / signhide / no-tskip / nr-intra=0 / nr-inter=0 / no-constrained-intra / no-strong-intra-smoothing / max-merge=3 / limit-refs=3 / limit-modes / me=3 / subme=3 / merange=57 / temporal-mvp / no-frame-dup / no-hme / no-fades / weightp / no-weightb / no-analyze-src-pics / deblock=-2:-2 / no-sao / no-sao-non-deblock / rd=4 / selective-sao=0 / no-early-skip / rskip / no-fast-intra / no-tskip-fast / no-cu-lossless / no-b-intra / no-splitrd-skip / rdpenalty=0 / psy-rd=2.00 / psy-rdoq=1.00 / no-rd-refine / no-lossless / cbqpoffs=0 / crqpoffs=0 / rc=crf / crf=13.0000 / qcomp=0.60 / qpstep=4 / stats-write=0 / stats-read=0 / vbv-maxrate=160000 / vbv-bufsize=160000 / vbv-init=0.9 / crf-max=0.0 / crf-min=0.0 / ipratio=1.40 / pbratio=1.30 / aq-mode=1 / aq-strength=1.00 / cutree / zone-count=0 / no-strict-cbr / qg-size=32 / no-rc-grain / qpmax=69 / qpmin=0 / no-const-vbv / sar=0 / overscan=0 / videoformat=5 / range=0 / colorprim=9 / transfer=16 / colormatrix=9 / chromaloc=1 / chromaloc-top=2 / chromaloc-bottom=2 / display-window=0 / master-display=G(13250,34500)B(7500,3000)R(34000,16000)WP(15635,16450)L(10000000,1) / cll=0,0 / min-luma=0 / max-luma=1023 / log2-max-poc-lsb=8 / vui-timing-info / vui-hrd-info / slices=1 / no-opt-qp-pps / no-opt-ref-list-length-pps / no-multi-pass-opt-rps / scenecut-bias=0.05 / no-opt-cu-delta-qp / no-aq-motion / hdr / hdr-opt / no-dhdr10-opt / no-idr-recovery-sei / analysis-reuse-level=5 / scale-factor=0 / refine-intra=0 / refine-inter=0 / refine-mv=1 / refine-ctu-distortion=0 / no-limit-sao / ctu-info=0 / no-lowpass-dct / refine-analysis-type=0 / copy-pic=1 / max-ausize-factor=1.0 / no-dynamic-refine / no-single-sei / no-hevc-aq / no-svt / no-field / qp-adaptation-range=1.00
Language : Ukrainian
Default : Yes
Forced : No
Color range : Limited
Color primaries : BT.2020
Transfer characteristics : PQ
Matrix coefficients : BT.2020 non-constant
Mastering display color pri : Display P3
Mastering display luminance : min: 0.0001 cd/m2, max: 1000 cd/m2

Audio #1
ID : 2
Format : AC-3
Format/Info : Audio Coding 3
Commercial name : Dolby Digital
Codec ID : A_AC3
Duration : 1 h 35 min
Bit rate mode : Constant
Bit rate : 160 kb/s
Channel(s) : 2 channels
Channel layout : L R
Sampling rate : 48.0 kHz
Frame rate : 31.250 FPS (1536 SPF)
Compression mode : Lossy
Stream size : 109 MiB (1%)
Title : iTunes
Language : Ukrainian
Service kind : Complete Main
Default : Yes
Forced : Yes

Audio #2
ID : 3
Format : XLL
Format/Info : Digital Theater Systems
Commercial name : -HD Master Audio
Codec ID : A_DTS
Duration : 1 h 35 min
Bit rate mode : Variable
Bit rate : 3 698 kb/s
Channel(s) : 6 channels
Channel layout : C L R Ls Rs LFE
Sampling rate : 48.0 kHz
Frame rate : 93.750 FPS (512 SPF)
Bit depth : 24 bits
Compression mode : Lossless
Delay relative to video : 2 s 503 ms
Stream size : 2.46 GiB (12%)
Title : Оригінал
Language : English
Default : No
Forced : No

Text #1
ID : 4
Format : UTF-8
Codec ID : S_TEXT/UTF8
Codec ID/Info : UTF-8 Plain Text
Duration : 1 h 34 min
Bit rate : 66 b/s
Count of elements : 1080
Stream size : 46.0 KiB (0%)
Title : Повні
Language : Ukrainian
Default : Yes
Forced : Yes

Text #2
ID : 5
Format : UTF-8
Codec ID : S_TEXT/UTF8
Codec ID/Info : UTF-8 Plain Text
Duration : 1 h 33 min
Bit rate : 51 b/s
Count of elements : 1167
Stream size : 35.4 KiB (0%)
Title : Повні
Language : English
Default : No
Forced : No

Menu
00:00:00.000 : en:Chapter 01
00:03:11.983 : en:Chapter 02
00:06:49.534 : en:Chapter 03
00:09:27.441 : en:Chapter 04
00:12:26.787 : en:Chapter 05
00:16:24.149 : en:Chapter 06
00:21:58.275 : en:Chapter 07
00:25:21.311 : en:Chapter 08
00:28:00.261 : en:Chapter 09
00:31:21.921 : en:Chapter 10
00:34:46.459 : en:Chapter 11
00:36:08.624 : en:Chapter 12
00:38:23.676 : en:Chapter 13
00:41:55.930 : en:Chapter 14
00:45:40.362 : en:Chapter 15
00:48:02.713 : en:Chapter 16
00:51:50.440 : en:Chapter 17
00:54:05.367 : en:Chapter 18
00:57:04.963 : en:Chapter 19
00:59:52.714 : en:Chapter 20
01:01:37.902 : en:Chapter 21
01:04:01.671 : en:Chapter 22
01:07:31.505 : en:Chapter 23
01:09:25.494 : en:Chapter 24
01:11:48.053 : en:Chapter 25
01:15:59.346 : en:Chapter 26
01:18:34.584 : en:Chapter 27
01:21:39.644 : en:Chapter 28
01:24:07.292 : en:Chapter 29
01:27:48.012 : en:Chapter 30
01:29:22.315 : en:Chapter 31
01:30:48.860 : en:Chapter 32
Скріншоти


 Трекер:    Зареєстрований   

Завантажити / скачати фільм українською



відео для новачків



 Зареєстрований:   2020-02-12 23:42
 Розмір:   20.15 GB 
 Оцінка фільму:   9.2/10 (Голосів: 6)
   
Інші релізи
[email protected] 
Відео Гуртом - підтримка та поширення
Відео Гуртом - підтримка та поширення


З нами з: 16.06.12
Востаннє: 20.09.20
Повідомлень: 1427

2020-06-09 11:36  

Створена роздача на DC++ хабі Толока (сід "Схованка-*" 24/7)
Магніт
magnet:?xt=urn:tree:tiger:PP4OA4VDS3N5OHSSJ3BZ4QDXRHCLNB6QAMPZEKY&xl=21640582267&dn=%D0%93%D1%80%D0%B0+%D0%B2+%D1%85%D0%BE%D0%B2%D0%B0%D0%BD%D0%BA%D0%B8+(Ready+or+Not)+2019++UHD+HDR+2160p+%5BHurtom%5D.
Або CTRL+S в клієнті і виконати пошук за хешом: PP4OA4VDS3N5OHSSJ3BZ4QDXRHCLNB6QAMPZEKY

Тема на форумі та як приєднатися: https://toloka.to/t103590

Ваш часовий пояс: GMT + 2 Години

Нова тема   Відповісти