П'єта / Pietà / 피에타 (2012) 720p Ukr/Kor | Sub Ukr

Нові коментарі

Нова тема   Відповісти
Автор Повідомлення
ArtymKo 
Частий відвідувач


З нами з: 14.01.20
Востаннє: 21.10.20
Повідомлень: 33

2020-02-12 22:37  
П'єта / Pietà / 피에타 (2012) 720p Ukr/Kor | Sub Ukr

П'єта / Pietà / 피에타 (2012) 720p Ukr/Kor | Sub Ukr


Жанр: кримінальний, трилер
Країна: Південна Корея



Кінокомпанія: Good Film, Finecut, Kim Ki-Duk Film
Режисер: Кім Кі Дук
Актори: Лі Джунг Джін, Джо Мін Су

Сюжет:
Самотній тридцятирічний сеулець Ли Кан До заробляє вимаганням грошей у кустарів, що заборгували місцевому лихвареві. Неплатників Кан До калічить, імітуючи нещасний випадок, щоб ті могли отримати страховку та віддати борг. Хоча такі садистські методи викликають відразу навіть у самого "боса", гангстер вважає себе правим, оскільки мірою всіх речей для нього служать гроші. Одного ж разу Лі знайомиться з жінкою, яка називає себе матір'ю, що кинула його немовлям...


Трейлер



Вікова категорія: 16+

Тривалість: 01:42:48
Якість:

Відео:
кодек:
розмір кадру: 1280 х 690
бітрейт: 4106 кб/с

Аудіо # 1:
мова: українська
переклад: двоголосий закадровий (ArtymKo)
кодек: 5.1
бітрейт: 2348 кб/с

Аудіо # 2:
мова: корейська
переклад: оригінал
кодек: 5.1
бітрейт: 640 кб/с

Субтитри:
мова: українська (написи)
тип: програмні (м'які)
формат: *.

Субтитри:
мова: українська (повні)
тип: програмні (м'які)
формат: *.
Info
General
Unique ID : 146656207448323476842261387568555529554 (0x6E54F54906001D0517AC04FC37DC9552)
Complete name : D:\Фільми\П'єта\Pieta (2012) 720p BluRay [ArtymKo].
Format :
Format version : Version 4
File size : 5.10 GiB
Duration : 1 h 42 min
Overall bit rate mode : Variable
Overall bit rate : 7 096 kb/s
Movie name : Pieta (2012) [ArtymKo]
Encoded date : UTC 2020-03-09 11:05:44
Writing application : v42.0.0 ('Overtime') 64-bit
Writing library : libebml v1.3.10 + v1.5.2
Cover : Yes
Attachments : cover6.jpg

Video
ID : 1
Format : AVC
Format/Info : Advanced Video Codec
Format profile : [email protected]
Format settings : CABAC / 9 Ref Frames
Format settings, CABAC : Yes
Format settings, Reference : 9 frames
Codec ID : V_MPEG4/ISO/AVC
Duration : 1 h 42 min
Bit rate : 4 106 kb/s
Width : 1 280 pixels
Height : 690 pixels
Display aspect ratio : 1.85:1
Original display aspect rat : 1.85:1
Frame rate mode : Constant
Frame rate : 23.976 FPS
Color space : YUV
Chroma subsampling : 4:2:0
Bit depth : 8 bits
Scan type : Progressive
Bits/(Pixel*Frame) : 0.194
Stream size : 2.95 GiB (58%)
Writing library : core 130 r2273 b3065e6
Encoding settings : cabac=1 / ref=9 / deblock=1:-3:-3 / analyse=0x3:0x113 / me=umh / subme=11 / psy=1 / psy_rd=0.80:0.00 / mixed_ref=1 / me_range=24 / chroma_me=1 / trellis=2 / 8x8dct=1 / cqm=0 / deadzone=21,11 / fast_pskip=0 / chroma_qp_offset=-2 / threads=12 / lookahead_threads=2 / sliced_threads=0 / nr=0 / decimate=0 / interlaced=0 / bluray_compat=0 / constrained_intra=0 / bframes=7 / b_pyramid=2 / b_adapt=2 / b_bias=0 / direct=3 / weightb=1 / open_gop=0 / weightp=2 / keyint=250 / keyint_min=23 / scenecut=40 / intra_refresh=0 / rc=crf / mbtree=0 / crf=16.1 / qcomp=0.50 / qpmin=0 / qpmax=69 / qpstep=4 / ip_ratio=1.40 / pb_ratio=1.30 / aq=1:1.00
Language : English
Default : Yes
Forced : No

Audio #1
ID : 2
Format :
Format/Info : Free Lossless Audio Codec
Codec ID : A_FLAC
Duration : 1 h 42 min
Bit rate mode : Variable
Bit rate : 2 348 kb/s
Channel(s) : 6 channels
Channel layout : L R C LFE Ls Rs
Sampling rate : 48.0 kHz
Frame rate : 11.719 FPS (4096 SPF)
Bit depth : 24 bits
Compression mode : Lossless
Stream size : 1.69 GiB (33%)
Title : Artymko, Vasyl T
Writing library : libFLAC 20170101 (UTC 2017-01-01)
Language : Ukrainian
Default : Yes
Forced : Yes

Audio #2
ID : 3
Format : AC-3
Format/Info : Audio Coding 3
Commercial name : Dolby Digital
Codec ID : A_AC3
Duration : 1 h 42 min
Bit rate mode : Constant
Bit rate : 640 kb/s
Channel(s) : 6 channels
Channel layout : L R C LFE Ls Rs
Sampling rate : 48.0 kHz
Frame rate : 31.250 FPS (1536 SPF)
Compression mode : Lossy
Stream size : 471 MiB (9%)
Title : Original
Language : Korean
Service kind : Complete Main
Default : No
Forced : No

Text #1
ID : 4
Format :
Codec ID : S_TEXT/
Codec ID/Info : Advanced Sub Station Alpha
Duration : 1 h 40 min
Bit rate : 2 b/s
Count of elements : 22
Compression mode : Lossless
Stream size : 1.75 KiB (0%)
Title : Написи (Mormor)
Language : Ukrainian
Default : Yes
Forced : Yes

Text #2
ID : 5
Format :
Codec ID : S_TEXT/
Codec ID/Info : Advanced Sub Station Alpha
Duration : 1 h 40 min
Bit rate : 44 b/s
Count of elements : 545
Compression mode : Lossless
Stream size : 32.6 KiB (0%)
Title : Повні (Mormor)
Language : Ukrainian
Default : No
Forced : No
Скріншоти



Реліз: Команда озвучення «ArtymKo»
Переклад: Mormor
Актори озвучення: Artymko, Vasyl T
Таймінг звуку: KohinSan
Робота зі звуком: Vasyl T
Підтримати команду можна за посиланням на цій сторінці. Не забудьте вказати назву проєкту (наприклад, «П'єта») і, за бажання, своє ім'я або нік.
________________
Збір коштів на озвучення
Замовити озвучення
Telegram


Авторський реліз (завантажувати можна без реєстрації)
 Трекер:    Зареєстрований   

Завантажити / скачати фільм українською



відео для новачків



 Зареєстрований:   2020-03-09 14:58
 Розмір:   5.1 GB 
 Оцінка фільму:   7.8/10 (Голосів: 8)
   
Інші релізи
   П'єта / Pietà / 피에타 (2012) Ukr/Kor | Sub Ukr/Kor/Eng MutuLI  2 / 0   2.18 GB   2020-03-22 17:26 
11FrYkT 
Модератор відео


З нами з: 20.02.11
Востаннє: 22.10.20
Повідомлень: 7003

2020-03-07 23:41  
Цитата:
Параметри кодування мають відповідати хоча б me=umh

ArtymKo написано:
me=hex

bot 
робот


З нами з: 30.09.07
Востаннє: 26.05.05
Повідомлень: 25912

2020-03-09 18:01  
Тему перенесено з Неоформлене відео до форуму Фільми в HD


11FrYkT

MutuLI 
Відео Гуртом - фільмокрай
Відео Гуртом - фільмокрай


З нами з: 08.03.09
Востаннє: 22.10.20
Повідомлень: 1960

2020-03-12 19:30  
зробіть ще SD реліз, щоб можна було залишити для колекції
Explorer UA 
Частий відвідувач


З нами з: 31.08.16
Востаннє: 21.10.20
Повідомлень: 40

2020-03-14 21:26  
Ще не дивився, але точно "Ли", чи може "Лі"?
007kolya1985 
Частий відвідувач


З нами з: 18.04.12
Востаннє: 11.05.20
Повідомлень: 43

2020-03-24 17:12  
Спокійний фільм.
waldi-hurtom 
VIP


З нами з: 07.10.12
Востаннє: 22.10.20
Повідомлень: 1203

2020-03-24 20:00  
Непоганий фільм, але занадто кровожерливий. Тож вирішив не псувати собі настрій - не став дивитися до кінця. Не такий я фанат азійщини, щоб це терпіти.
Ваш часовий пояс: GMT + 2 Години

Нова тема   Відповісти