Шлюбні ігри Землян / The Mating Habits of the Earthbound Human (1999) 1080p 2хUkr/Eng | Sub Eng

Нові коментарі

Нова тема   Відповісти
Автор Повідомлення
Anonymous 







2020-02-12 19:55  
Шлюбні ігри Землян / The Mating Habits of the Earthbound Human (1999) 1080p 2хUkr/Eng | Sub Eng

Шлюбні ігри Землян / The Mating Habits of the Earthbound Human (1999) 1080p 2хUkr/Eng | Sub Eng


Жанр: фантастика, комедія
Країна: США



Кінокомпанія: Earthbound Human Productions Inc., SearchParty Films, Welb Film Pursuits Ltd.
Режисер: Джефф Абуґов/Jeff Abugov
Актори: Маккензі Остін/Mackenzie Astin, Кармен Електра/Carmen Electra, Маркус Редмонд/Markus Redmond, Люсі Лью/Lucy Liu, Ліза Ротонді/Lisa Rotondi, Шерон Вайт/Sharon Wyatt, Девід Хайд Пірс/David Hyde Pierce, Джек Кєхлер/Jack Kehler, Лео Россі/Leo Rossi, Антонетт Сефтлер/Antonette Saftler, Марк Блукес/Marc Blucas, Енні Джі Бирд/Anne Gee Byrd, Ерік Кушнік/Eric Kushnick, Лінда Портер/Linda Porter, Тайлер Абуґов/Tyler Abugov

Сюжет:
Антрополог-інопланетянин приголомшений: ні у кого з мешканців Всесвіту немає такого божевільно-складного шлюбного ритуалу, як у мешканців Землі. До такого висновку він прийшов, спостерігаючи за парою молодих людей Біллі і Дженні. Вони знайомляться в клубі на танцях, п'ють коктейлі, гуляють, зітхають, чепуряться, а далі... Далекий голос з галактики розповість вам про найінтимніші моменти шлюбних ігор Землян.


Тривалість: 01:30:00
Якість: 1080p
Відео:
кодек:
розмір кадру: 1920х1080
бітрейт: 12.2 Mб/с

Аудіо # 1:
мова: українська
переклад: двоголосий закадровий
кодек: 2.0
бітрейт: 192 кб/с

Аудіо # 2:
мова: українська
переклад: двоголосий закадровий | StarMaster
кодек: 3.0
бітрейт: 192 кб/с

Аудіо # 3:
мова: англійська
переклад: оригінал
кодек: E-AC-3 2.0
бітрейт: 224 кб/с

Субтитри:
мова: англійська
тип: програмні (м'які)
формат: *.srt
Info
General
Unique ID : 220260780460836697752732384736565368017 (0xA5B4AEEA8B5AD9559FFA7696194594D1)
Complete name : H:\Toloka\2020\The Mating Habits of the Earthbound Human (1999) 1080p.
Format :
Format version : Version 4
File size : 8.24 GiB
Duration : 1 h 29 min
Overall bit rate mode : Variable
Overall bit rate : 13.1 Mb/s
Encoded date : UTC 2020-02-12 16:43:05
Writing application : v6.1.0 ('Old Devil') built on Mar 4 2013 09:10:42
Writing library : libebml v1.3.0 + v1.4.0

Video
ID : 1
Format : AVC
Format/Info : Advanced Video Codec
Format profile : [email protected]
Format settings : CABAC / 4 Ref Frames
Format settings, CABAC : Yes
Format settings, RefFrames : 4 frames
Codec ID : V_MPEG4/ISO/AVC
Duration : 1 h 29 min
Bit rate mode : Variable
Bit rate : 12.2 Mb/s
Maximum bit rate : 15.0 Mb/s
Width : 1 920 pixels
Height : 1 080 pixels
Display aspect ratio : 16:9
Frame rate mode : Constant
Frame rate : 23.976 (24000/1001) FPS
Color space : YUV
Chroma subsampling : 4:2:0
Bit depth : 8 bits
Scan type : Progressive
Bits/(Pixel*Frame) : 0.246
Stream size : 7.69 GiB (93%)
Writing library : core 148 r2623 d5b2374
Encoding settings : cabac=1 / ref=4 / deblock=1:-1:-1 / analyse=0x3:0x133 / me=umh / subme=9 / psy=1 / psy_rd=1.00:0.15 / mixed_ref=1 / me_range=24 / chroma_me=1 / trellis=2 / 8x8dct=1 / cqm=0 / deadzone=21,11 / fast_pskip=1 / chroma_qp_offset=-3 / threads=34 / lookahead_threads=5 / sliced_threads=0 / nr=150 / decimate=1 / interlaced=0 / bluray_compat=0 / constrained_intra=0 / bframes=8 / b_pyramid=2 / b_adapt=2 / b_bias=0 / direct=3 / weightb=1 / open_gop=0 / weightp=2 / keyint=120 / keyint_min=61 / scenecut=0 / intra_refresh=0 / rc_lookahead=120 / rc=crf / mbtree=1 / crf=18.0 / qcomp=0.60 / qpmin=0 / qpmax=69 / qpstep=4 / vbv_maxrate=15000 / vbv_bufsize=31250 / crf_max=0.0 / nal_hrd=vbr / filler=0 / ip_ratio=1.40 / aq=3:1.00
Default : Yes
Forced : No
Color range : Limited
Color primaries : BT.709
Transfer characteristics : BT.709
Matrix coefficients : BT.709
Statistics Tags Issue : v9.3.1 ('Mask Machine') 64bit 2016-08-28 23:28:06 / v6.1.0 ('Old Devil') built on Mar 4 2013 09:10:42 2020-02-12 16:43:05
FromStats_BitRate : 12499018
FromStats_Duration : 01:29:59.853000000
FromStats_FrameCount : 129467
FromStats_StreamSize : 8436607632

Audio #1
ID : 2
Format : AC-3
Format/Info : Audio Coding 3
Commercial name : Dolby Digital
Codec ID : A_AC3
Duration : 1 h 29 min
Bit rate mode : Constant
Bit rate : 192 kb/s
Channel(s) : 2 channels
Channel layout : L R
Sampling rate : 48.0 kHz
Frame rate : 31.250 FPS (1536 SPF)
Bit depth : 16 bits
Compression mode : Lossy
Stream size : 124 MiB (1%)
Title : UKR (Новий)
Language : Ukrainian
Service kind : Complete Main
Default : Yes
Forced : Yes

Audio #2
ID : 3
Format : AC-3
Format/Info : Audio Coding 3
Commercial name : Dolby Digital
Codec ID : A_AC3
Duration : 1 h 29 min
Bit rate mode : Constant
Bit rate : 192 kb/s
Channel(s) : 3 channels
Channel layout : L R C
Sampling rate : 48.0 kHz
Frame rate : 31.250 FPS (1536 SPF)
Bit depth : 16 bits
Compression mode : Lossy
Stream size : 124 MiB (1%)
Title : UKR (StarMaster)
Language : Ukrainian
Service kind : Complete Main
Default : No
Forced : No

Audio #3
ID : 4
Format : E-AC-3
Format/Info : Enhanced AC-3
Commercial name : Dolby Digital Plus
Codec ID : A_EAC3
Duration : 1 h 29 min
Bit rate mode : Constant
Bit rate : 224 kb/s
Channel(s) : 2 channels
Channel layout : L R
Sampling rate : 48.0 kHz
Frame rate : 31.250 FPS (1536 SPF)
Compression mode : Lossy
Stream size : 144 MiB (2%)
Title : ENG
Language : English
Service kind : Complete Main
Default : No
Forced : No
Statistics Tags Issue : v9.3.1 ('Mask Machine') 64bit 2016-08-28 23:28:06 / v6.1.0 ('Old Devil') built on Mar 4 2013 09:10:42 2020-02-12 16:43:05
FromStats_BitRate : 224000
FromStats_Duration : 01:29:59.808000000
FromStats_FrameCount : 168744
FromStats_StreamSize : 151194624

Text
ID : 5
Format : UTF-8
Codec ID : S_TEXT/UTF8
Codec ID/Info : UTF-8 Plain Text
Title : ENG
Language : English
Default : Yes
Forced : No
Statistics Tags Issue : v9.3.1 ('Mask Machine') 64bit 2016-08-28 23:28:06 / v6.1.0 ('Old Devil') built on Mar 4 2013 09:10:42 2020-02-12 16:43:05
FromStats_BitRate : 85
FromStats_Duration : 01:24:48.483000000
FromStats_FrameCount : 1445
FromStats_StreamSize : 54690
Скріншоти









За доріжки подяка п.: karvai0, dvorsky, Bulka27
Особиста подяка пану denixx за надану матеріальну допомогу на підтримку цього і майбутніх релізів.
Джерело:


Срібний реліз (на рейтинг впливає 50% завантаженого)
 Трекер:    Зареєстрований   

Завантажити / скачати фільм українською



відео для новачків



 Зареєстрований:   2020-02-12 19:55
 Розмір:   8.24 GB 
 Оцінка фільму:   10/10 (Голосів: 6)
   
+380954897458 
VIP


З нами з: 02.06.17
Востаннє: 18.09.20
Повідомлень: 942

2020-02-13 00:39  
Кармен Електра супер-пупер лялечка. Шкода що участь у всілякому непотребі згубила її кар'єру акторки. Колись давно бачив фільм по телевізору. Спермінатор усміхнув. Happy
alexhap 
Частий відвідувач


З нами з: 23.09.16
Востаннє: 21.09.20
Повідомлень: 27

2020-02-13 02:32  
В чому кайф таких роздач (станом на 13/02/2020 01:31)?

% від. завант.
4 16 MB 376 MB - - uTorrent 3
4 ------ 376 MB - - uTorrent 1.8
4 252 MB 376 MB - - BitTorrent
4 566 MB 376 MB - - Transmission 2.x
4 545 MB 376 MB - - uTorrent 3
4 6 MB 376 MB - - uTorrent 3
4 ------ 376 MB - - Transmission 2.x
4 566 MB 376 MB - - uTorrent 1.8

проясніть будь-ласка

Anonymous 







2020-02-13 06:26  
alexhap
що не так?

MutuLI 
Відео Гуртом - фільмокрай
Відео Гуртом - фільмокрай


З нами з: 08.03.09
Востаннє: 21.09.20
Повідомлень: 1938

2020-02-13 11:44  
непогане кіно. колись його ще по 1+1 показували, але чи ще з іншою озвучкою не знаю.
alexhap 
Частий відвідувач


З нами з: 23.09.16
Востаннє: 21.09.20
Повідомлень: 27

2020-02-13 18:45  
Anonymous
Цитата:
що не так?

було роздано тільки 4% на той момент. просто останнім часом це вже третя така роздача трапилася, що не можна отримати повністю.
зараз все ок. дякую.

Anonymous 







2020-02-13 20:45  
alexhap
цілодобово не роздаю, тому так виходить. Ранком комп вмикається і роздача відновлюється.

Ваш часовий пояс: GMT + 2 Години

Нова тема   Відповісти