Я, ти і всі, кого ми знаємо / Me and You and Everyone We Know (2005) 1080p Ukr/Eng | Sub Ukr/Eng

Нові коментарі

Нова тема   Відповісти
Автор Повідомлення
Anonymous 







2020-02-12 19:32  
Я, ти і всі, кого ми знаємо / Me and You and Everyone We Know (2005) 1080p Ukr/Eng | Sub Ukr/Eng

Я, ти і всі, кого ми знаємо / Me and You and Everyone We Know (2005) 1080p Ukr/Eng | Sub Ukr/Eng


Жанр: комедія, драма
Країна: США, Велика Британія



Кінокомпанія: IFC Films, FilmFour
Режисер: Міранда Джулай (Miranda July)
Актори: Джон Хоукс (John Hawkes), Міранда Джулай (Miranda July), Майлз Томпсон (Miles Thompson), Брендон Реткліфф (Brandon Ratcliff), Карлі Вестерман (Carlie Westerman), Гектор Еліас (Hector Elias), Бред Вілльям Хенке (Brad William Henke), Наташа Слейтон (Natasha Slayton), Неджарра Таунсенд (Najarra Townsend), Трейсі Райт (Tracy Wright), ДжоНелл Кеннеді (JoNell Kennedy), Еллен Гір (Ellen Geer), Колетт Кілрой (Colette Kilroy), Джеймс Кайтен (James Kayten), Емі Френч (Amy French), Свен Холмберг (Sven Holmberg), Джеймс Метерс (James Mathers), Келслі Чепман (Kelsey Chapman), Тіана Марі Нелмс (Tiana Marie Nelms), Джордан Поттер (Jordan Potter), Шеріл Філліпс (Cheryl Phillips), Патриція Скеріотіс (Patricia Skeriotis), Ел Джей Каллахан (EJ Callahan), Джеймс Симінгтон (Peter James), Гяванна Вайтед (Giavanna Whited), Ерлінда Бугайонг (Erlinda Bugayong), Амбер Бінфорд (Amber Binford), Келлі Гріні (Kelli Greaney), Діна Крігер (Dina Kriger), Кейтлін Реза (Caitlin Reza), Девін Роквелл (Devin Rockwell), Джессі Саенз (Jesse Saenz), Міхаель Свінфард (Michael Swinfard), Захарі Хекберт (Zachary Hackbarth), Девід Серфозо (David Serfozo), Кенді Херберт (Candi Herbert), Ентоні Бінфорд (Anthony Binford), Келсі Гріффіз-Янг (Kelci Griffith-Young), Квінсі Гріффіз-Янг (Kwinci Griffith-Young), Лоуренс Норлінг (Lance Norling), Пейдж Норлінг (Paige Norling), Брендан Реза (Brendan Reza), Кевін Монтгомері (Kevin Montgomery), Аші Толедано (Ashi Toledano), Тіммі Нілссон (Timmy Nilsson), Річард Гудман (Richard Goodman)

Сюжет:
Річард Суірсі, батько-одинак, який виховує двох синів, цілком готовий до сімейних змін, але коли чарівна і рвучка Крістін, самобутня художниця і хвацький водій «Елдеркеба», вривається в його життя, Річарда охоплює паніка. У той же самий час його семирічний син Роббі, зав'язує свій перший, правда поки віртуальний роман з прекрасною незнайомкою, а 14-річний Пітер знову і знову стає «піддослідним кроликом» для сусідських дівчаток, які репетирують на хлопцеві свої майбутні романтичні відносини ...


Тривалість: 01:31:19
Якість: 1080p
Відео:
кодек:
розмір кадру: 1920х1080
бітрейт: 9176 кб/с

Аудіо # 1:
мова: українська
переклад: багатоголосий закадровий
кодек: 5.1
бітрейт: 448 кб/с

Аудіо # 2:
мова: англійська
переклад: оригінал
кодек: 2.0
бітрейт: 192 кб/с

Субтитри:
мова: українська
тип: програмні (м'які)
формат: *.srt

Субтитри:
мова: англійська
тип: програмні (м'які)
формат: *.srt
Info
General
Unique ID : 186609292505557337172822560086049355842 (0x8C63A476899208E2966E3100C432F842)
Complete name : H:\Toloka\2020\Me and You and Everyone We Know (2005) 1080p.
Format :
Format version : Version 4
File size : 6.40 GiB
Duration : 1 h 31 min
Overall bit rate mode : Variable
Overall bit rate : 10.0 Mb/s
Encoded date : UTC 2020-02-12 16:01:30
Writing application : v6.1.0 ('Old Devil') built on Mar 4 2013 09:10:42
Writing library : libebml v1.3.0 + v1.4.0

Video
ID : 1
Format : AVC
Format/Info : Advanced Video Codec
Format profile : [email protected]
Format settings : CABAC / 4 Ref Frames
Format settings, CABAC : Yes
Format settings, RefFrames : 4 frames
Codec ID : V_MPEG4/ISO/AVC
Duration : 1 h 31 min
Bit rate mode : Variable
Bit rate : 9 176 kb/s
Maximum bit rate : 15.0 Mb/s
Width : 1 920 pixels
Height : 1 080 pixels
Display aspect ratio : 16:9
Frame rate mode : Constant
Frame rate : 30.000 FPS
Color space : YUV
Chroma subsampling : 4:2:0
Bit depth : 8 bits
Scan type : Progressive
Bits/(Pixel*Frame) : 0.148
Stream size : 5.86 GiB (92%)
Writing library : core 148 r2623 d5b2374
Encoding settings : cabac=1 / ref=4 / deblock=1:-1:-1 / analyse=0x3:0x133 / me=umh / subme=9 / psy=1 / psy_rd=1.00:0.15 / mixed_ref=1 / me_range=24 / chroma_me=1 / trellis=2 / 8x8dct=1 / cqm=0 / deadzone=21,11 / fast_pskip=1 / chroma_qp_offset=-3 / threads=34 / lookahead_threads=5 / sliced_threads=0 / nr=150 / decimate=1 / interlaced=0 / bluray_compat=0 / constrained_intra=0 / bframes=8 / b_pyramid=2 / b_adapt=2 / b_bias=0 / direct=3 / weightb=1 / open_gop=0 / weightp=2 / keyint=150 / keyint_min=76 / scenecut=0 / intra_refresh=0 / rc_lookahead=150 / rc=crf / mbtree=1 / crf=18.0 / qcomp=0.60 / qpmin=0 / qpmax=69 / qpstep=4 / vbv_maxrate=15000 / vbv_bufsize=31250 / crf_max=0.0 / nal_hrd=vbr / filler=0 / ip_ratio=1.40 / aq=3:1.00
Default : Yes
Forced : No
Color range : Limited
Color primaries : BT.709
Transfer characteristics : BT.709
Matrix coefficients : BT.709
Statistics Tags Issue : v7.9.0 ('Birds') 32bit 2016-10-26 01:46:18 / v6.1.0 ('Old Devil') built on Mar 4 2013 09:10:42 2020-02-12 16:01:30
FromStats_BitRate : 9383516
FromStats_Duration : 01:31:19.433000000
FromStats_FrameCount : 164383
FromStats_StreamSize : 6427043443

Audio #1
ID : 2
Format : AC-3
Format/Info : Audio Coding 3
Commercial name : Dolby Digital
Codec ID : A_AC3
Duration : 1 h 31 min
Bit rate mode : Constant
Bit rate : 448 kb/s
Channel(s) : 6 channels
Channel layout : L R C LFE Ls Rs
Sampling rate : 48.0 kHz
Frame rate : 31.250 FPS (1536 SPF)
Bit depth : 16 bits
Compression mode : Lossy
Stream size : 293 MiB (4%)
Title : UKR (Tonis)
Language : Ukrainian
Service kind : Complete Main
Default : Yes
Forced : Yes

Audio #2
ID : 3
Format : E-AC-3
Format/Info : Enhanced AC-3
Commercial name : Dolby Digital Plus
Codec ID : A_EAC3
Duration : 1 h 31 min
Bit rate mode : Constant
Bit rate : 192 kb/s
Channel(s) : 2 channels
Channel layout : L R
Sampling rate : 48.0 kHz
Frame rate : 31.250 FPS (1536 SPF)
Compression mode : Lossy
Stream size : 126 MiB (2%)
Language : English
Service kind : Complete Main
Default : No
Forced : No
Statistics Tags Issue : v7.9.0 ('Birds') 32bit 2016-10-26 01:46:18 / v6.1.0 ('Old Devil') built on Mar 4 2013 09:10:42 2020-02-12 16:01:30
FromStats_BitRate : 192000
FromStats_Duration : 01:31:18.016000000
FromStats_FrameCount : 171188
FromStats_StreamSize : 131472384

Text #1
ID : 4
Format : UTF-8
Codec ID : S_TEXT/UTF8
Codec ID/Info : UTF-8 Plain Text
Title : UKR
Language : Ukrainian
Default : Yes
Forced : No

Text #2
ID : 5
Format : UTF-8
Codec ID : S_TEXT/UTF8
Codec ID/Info : UTF-8 Plain Text
Title : English
Language : English
Default : No
Forced : No
Statistics Tags Issue : v7.9.0 ('Birds') 32bit 2016-10-26 01:46:18 / v6.1.0 ('Old Devil') built on Mar 4 2013 09:10:42 2020-02-12 16:01:30
FromStats_BitRate : 50
FromStats_Duration : 01:27:17.333000000
FromStats_FrameCount : 931
FromStats_StreamSize : 33337
Скріншоти






За доріжку подяка п.: Disturbed, urij546724
За постер подяка п. DareDevil96
Особиста подяка пану denixx за надану матеріальну допомогу на підтримку цього і майбутніх релізів.
Джерело:


 Трекер:    Зареєстрований   

Завантажити / скачати фільм українською



відео для новачків



 Зареєстрований:   2020-02-12 19:32
 Розмір:   6.4 GB 
 Оцінка фільму:   10/10 (Голосів: 3)
   
VitNi 
Поважний учасник


З нами з: 05.05.12
Востаннє: 29.09.20
Повідомлень: 183

2020-02-13 19:44  
Super...
Ваш часовий пояс: GMT + 2 Години

Нова тема   Відповісти