Ангели Чарлі / Charlie's Angels (2019) 1080p Eng | sub Ukr/Eng

Нові коментарі

Нова тема   Відповісти
Автор Повідомлення
Anonymous 







2020-02-12 15:54  
Ангели Чарлі / Charlie's Angels (2019) 1080p Eng | sub Ukr/Eng

Ангели Чарлі / Charlie's Angels (2019) 1080p Eng | sub Ukr/Eng
Альтернативні постери:





Жанр: бойовик, комедія, пригодницький
Країна: США



Кінокомпанія: Columbia Pictures, 2.0 Entertainment, Brownstone Productions, Instinctual VFX, Perfect World Pictures, Sony Pictures Entertainment, Studio Babelsberg
Режисер: Елізабет Бенкс / Elizabeth Banks
Актори: Крістен Стюарт / Kristen Stewart, Наомі Скотт / Naomi Scott, Елла Балінська / Ella Balinska, Елізабет Бенкс / Elizabeth Banks, Патрік Стюарт / Patrick Stewart, Джимон Гонсу / Djimon Hounsou, Сем Клафлін / Sam Claflin, Джонатан Такер / Jonathan Tucker, Ной Сентінео / Noah Centineo, Гейлі Стейнфілд / Hailee Steinfeld, Лілі Рейнгарт / Lili Reinhart та інші

Сюжет:
Історія нового покоління чарівних та небезпечних шпигунок, які працюють на загадкового боса Чарлі. "Дикий джокер" Сабіна (Крістен Стюарт), колишній агент британської розвідки МІ6 Джейн (Елла Балінська) і вчена-програміст Єлена (Наомі Скотт) об'єднуються, щоб завадити міжнародним злочинцям заволодіти новою потужною зброєю.
Офіційні українські трейлери:




Рейтинг MPAA: PG-13 - дітям до 13 років перегляд не бажаний
Вікова категорія: 12+

Тривалість: 01:58:27
Якість: 1080p

Відео:
кодек:
розмір кадру: 1920х798
бітрейт: 4459 кб/с

Аудіо:*
мова: англійська
переклад: оригінал
кодек: 5.1
бітрейт: 384 кб/с

Субтитри # 1:
мова: українська
тип: програмні (м'які)
формат: *.srt
перекладач: Elena Astankova

Субтитри # 2:
мова: англійська
тип: програмні (м'які)
формат: *.srt

Збережено оригінальні розділи
Info
Код:
General
Unique ID                   : 211605648759229514383356634685704414407 (0x9F31C3FA14D44A4FBA7F4254B4DAA4C7)
Complete name               : F:\!Arhiv\Bckp\R6t\Charlies Angels (2019) [Eng sub.Ukr,Eng] 1080p [Hurtom].
Format                      :
Format version              : Version 4
File size                   : 4.01 GiB
Duration                    : 1 h 58 min
Overall bit rate            : 4 845 kb/s
Movie name                  : Ангели Чарлі / Charlie's Angels (2019) [Eng sub.Ukr,Eng] 1080p [Hurtom]
Encoded date                : UTC 2020-02-12 12:43:34
Writing application         : v43.0.0 ('The Quartermaster') 64-bit
Writing library             : libebml v1.3.10 + v1.5.2
Cover                       : Yes
Attachments                 : cover.jpg

Video
ID                          : 1
Format                      : AVC
Format/Info                 : Advanced Video Codec
Format profile              : [email protected]
Format settings             : CABAC / 5 Ref Frames
Format settings, CABAC      : Yes
Format settings, Reference  : 5 frames
Codec ID                    : V_MPEG4/ISO/AVC
Duration                    : 1 h 58 min
Bit rate                    : 4 459 kb/s
Width                       : 1 920 pixels
Height                      : 798 pixels
Display aspect ratio        : 2.40:1
Frame rate mode             : Constant
Frame rate                  : 23.976 (24000/1001) FPS
Color space                 : YUV
Chroma subsampling          : 4:2:0
Bit depth                   : 8 bits
Scan type                   : Progressive
Bits/(Pixel*Frame)          : 0.121
Stream size                 : 3.69 GiB (92%)
Title                       : Ангели Чарлі / Charlie's Angels (2019) 1080p [FGT]
Language                    : English
Default                     : Yes
Forced                      : No
Color range                 : Limited
Color primaries             : BT.709
Transfer characteristics    : BT.709
Matrix coefficients         : BT.709

Audio
ID                          : 2
Format                      : AC-3
Format/Info                 : Audio Coding 3
Commercial name             : Dolby Digital
Codec ID                    : A_AC3
Duration                    : 1 h 58 min
Bit rate mode               : Constant
Bit rate                    : 384 kb/s
Channel(s)                  : 6 channels
Channel layout              : L R C LFE Ls Rs
Sampling rate               : 48.0 kHz
Frame rate                  : 31.250 FPS (1536 SPF)
Compression mode            : Lossy
Stream size                 : 325 MiB (8%)
Language                    : English
Service kind                : Complete Main
Default                     : Yes
Forced                      : No

Text #1
ID                          : 3
Format                      : UTF-8
Codec ID                    : S_TEXT/UTF8
Codec ID/Info               : UTF-8 Plain Text
Duration                    : 1 h 57 min
Bit rate                    : 94 b/s
Count of elements           : 1616
Stream size                 : 81.1 KiB (0%)
Title                       : Ukr Full [iTunes]
Language                    : Ukrainian
Default                     : Yes
Forced                      : Yes

Text #2
ID                          : 4
Format                      : UTF-8
Codec ID                    : S_TEXT/UTF8
Codec ID/Info               : UTF-8 Plain Text
Duration                    : 1 h 52 min
Bit rate                    : 62 b/s
Count of elements           : 1743
Stream size                 : 51.4 KiB (0%)
Title                       : Eng Full
Language                    : English
Default                     : No
Forced                      : No

Menu
00:00:00.000                : en:1
00:10:25.625                : en:2
00:16:49.549                : en:3
00:26:27.752                : en:4
00:31:51.783                : en:5
00:37:35.083                : en:6
00:43:54.878                : en:7
00:46:38.249                : en:8
00:51:25.535                : en:9
00:55:09.257                : en:10
01:03:47.691                : en:11
01:11:23.188                : en:12
01:20:13.842                : en:13
01:30:46.558                : en:14
01:40:30.641                : en:15
01:45:23.099                : en:16


Джерело: &
*при появі українського дубляжу реліз буде оновлено (~ 17.02)



 Трекер:    Зареєстрований   

Завантажити / скачати фільм українською



відео для новачків



 Зареєстрований:   2020-02-12 15:54
 Розмір:   4.01 GB 
 Оцінка фільму:   8.3/10 (Голосів: 11)
   
Інші релізи
   Ангели Чарлі / Charlie's Angels (2019) AVC Ukr/Eng | Sub Ukr/Eng 11FrYkT  90 / 5   2.2 GB   2020-02-18 13:05 
   Ангели Чарлі / Charlie's Angels (2019) 1080p Ukr/Eng | Sub Ukr/Eng staf777  61 / 2   4.17 GB   2020-02-17 01:29 
   Ангели Чарлі / Charlie's Angels (2019) Jatx_11  132 / 1   1.45 GB   2020-02-16 23:35 
   Ангели Чарлі / Charlie's Angels (2019) 720p Ukr/Eng | Sub Ukr/Eng antik_2008  45 / 0   3.83 GB   2020-02-16 22:57 
don pedro 
Попереджень: 1
Попереджень: 1 


З нами з: 29.06.11
Востаннє: 25.02.20
Повідомлень: 15720

2020-02-12 16:04  
Яскравий, хоч і слабенький фільм на тему як сексі-шпигунки модельного вигляду у дизайнерському одягу з пістолетами у стрінгах, які їздять на спорткарах, рятують світ. Сюжет цілком дурнуватий, як і, зрештою, у попередніх фільмах. Уже вікова Крістен Стюарт, та ще й з такою зачіскою, серед "Янголів" цілком зайва, а от решта дівчат красуні. А от що тут забув Патрік Стбарт - незбагненно. Рейтинг фільму відповідає дійсності, а продовження (судячи з касових зборів) скоріше всього мати не буде. Сподіваюсь, що провал цього фільму відверне бажання продюсерів відроджувати давно мертві речі, і їм доведеться знімати щось нове.
Без крайньої потреби дивитись не треба. Ще один псевдофеміністичний провал.

danfil 
Новенький


З нами з: 05.02.20
Востаннє: 18.02.20
Повідомлень: 2

2020-02-13 07:43  
Де український дубляж?
midnight_man 
Свій


З нами з: 13.10.09
Востаннє: 25.02.20
Повідомлень: 64

2020-02-13 07:46  
Я нещодавна так само повівся на Термінатор. Фатум. Завантажив- а він англійською. Цього разу вже не ведуся 😃
tpolit 
VIP


З нами з: 10.01.15
Востаннє: 25.02.20
Повідомлень: 550

2020-02-13 10:56  
Дивні коменти, з огляду на той факт, що згадані фільми знаходяться в розділі українські субтитри.

Фільм на 3 з 10. Шкода втраченого часу.

midnight_man 
Свій


З нами з: 13.10.09
Востаннє: 25.02.20
Повідомлень: 64

2020-02-13 11:14  
Я не дивлюся на розділи. Я переглядаю всі новинки загальним списком.
Wrestling Ukraine 
Частий відвідувач


З нами з: 10.09.17
Востаннє: 25.02.20
Повідомлень: 39

2020-02-13 13:00  
danfil Відео » Українські субтитри » Фільми

Розділ не той трохи.

Але "обіцяли" і сюди скоро кидати.

+380954897458 
VIP


З нами з: 02.06.17
Востаннє: 25.02.20
Повідомлень: 636

2020-02-15 15:03  
Всі так люто ненавидять цей фільм (а особливо Крістен Стюарт) на іноземному торренті, що я обов'язково його мав подивитися. В мене нема ненависті до Крістен, якраз навпаки - вона мені дуже подобається, вважаю її винятково сексуальною, особливо в цьому фільмі і з незвичним іміджем. Мені здається що кіно не таке вже й погане, під час перегляду не нудьгував і не поглядав на таймер. Подивитися заради розваги було цікаво, сподобалися кілька жартів (особливо про Берта Ланкастера і Бетмена - а як же інакше!). Для акторки Елізабет Бенкс це була перша проба пера в царині сценаристки, тому не судіть суворо.
Ваш часовий пояс: GMT + 2 Години

Нова тема   Відповісти