Похмурий самурай / The Twilight Samurai / Tasogare Seibei (2002) AVC Ukr/Jap | Sub Ukr/Eng

Нові коментарі

Нова тема   Відповісти
Автор Повідомлення
Цікава ідея 
VIP


З нами з: 26.12.11
Востаннє: 28.05.20
Повідомлень: 410

2020-02-12 16:25  
AVC | | 720p | 1080p

Похмурий самурай / The Twilight Samurai / Tasogare Seibei (2002) AVC Ukr/Jap | Sub Ukr/Eng


Похмурий самурай / The Twilight Samurai / Tasogare Seibei (2002) AVC Ukr/Jap | Sub Ukr/Eng


Жанр: драма, романтичний, мелодрама
Країна: Японія



Кінокомпанія: Eisei Gekijo Company, Hakuhodo, Nippon Shuppan Hanbai (Nippan) K.K.
Режисери: Йодзі Ямада
Актори: Хіроюкі Санада, Ріе Міядзава, Нендзі Кобаясі, Рен Осуґі, Міцуру Фукікоші, Канако Фукаура, Хіроші Канбе, Мікі Іто, Еріна Хашіґучі, Рейко Кусамура.

Сюжет:
Історія Сейбея - скромного самурая низького рангу і його сім'ї, що жили в епоху смути. Сейбей переміг у двобої суперника дерев'яним мечем і як тільки про це стало відомо, його проти його ж волі вплутали у конфлікт всередині самурайського клану. Він отримує наказ від сюзерена вбити такого ж як і він сам, самурая низького рангу - васала...


Перекладено та озвучено ТО "Цікава Ідея" на замовлення NemoInFire


Тривалість: 02:09:02

Якість: AVC
Відео:
кодек:
розмір кадру: 1024x554
бітрейт: 2200 кбіт/с

Аудіо # 1:
мова: українська | "Цікава Ідея"
переклад: професійний багатоголосий закадровий
кодек: 5.1
бітрейт: 448 кб/с

Аудіо # 2:
мова: японська
переклад: оригінал
кодек: 5.1
бітрейт: 448 кб/с

Субтитри:
мова: українська | команда субтитрування проекту "Відео Гуртом"
тип: програмні (м'які)
формат: *.srt

Субтитри:
мова: англійська
тип: програмні (м'які)
формат: *.srt
Info
Код:
Format                      :
Format version              : Version 4
File size                   : 2.79 GiB
Duration                    : 2 h 9 min
Overall bit rate            : 3 099 kb/s
Movie name                  : Похмурий самурай / Tasogare Seibei (2002) AVC [Ukr,Jap sub.Ukr,Eng] [Цікава Ідея]
Encoded date                : UTC 2020-02-12 15:00:50
Writing application         : v6.8.0 ('Theme for Great Cities') 32bit built on Mar  2 2014 21:27:07
Writing library             : libebml v1.3.0 + v1.4.1
Cover                       : Yes
Attachments                 : cover.jpg

Video
ID                          : 1
Format                      : AVC
Format/Info                 : Advanced Video Codec
Format profile              : [email protected]
Format settings             : CABAC / 9 Ref Frames
Format settings, CABAC      : Yes
Format settings, Reference  : 9 frames
Codec ID                    : V_MPEG4/ISO/AVC
Duration                    : 2 h 9 min
Bit rate                    : 2 200 kb/s
Width                       : 1 024 pixels
Height                      : 554 pixels
Display aspect ratio        : 1.85:1
Frame rate mode             : Constant
Frame rate                  : 23.976 (24000/1001) FPS
Color space                 : YUV
Chroma subsampling          : 4:2:0
Bit depth                   : 8 bits
Scan type                   : Progressive
Bits/(Pixel*Frame)          : 0.162
Stream size                 : 1.93 GiB (69%)
Title                       : ..AVC.MediaClub
Writing library             : core 142 r2409+42 04be48a tMod [[email protected]:2:0 X86]
Encoding settings           : cabac=1 / ref=9 / deblock=1:-2:-2 / analyse=0x3:0x133 / me=umh / subme=11 / psy=1 / fade_compensate=0.00 / psy_rd=1.00:0.15 / mixed_ref=1 / me_range=32 / chroma_me=1 / trellis=2 / 8x8dct=1 / cqm=0 / deadzone=21,11 / fast_pskip=0 / chroma_qp_offset=-3 / threads=3 / lookahead_threads=1 / sliced_threads=0 / nr=0 / decimate=0 / interlaced=0 / bluray_compat=0 / constrained_intra=0 / fgo=0 / bframes=8 / b_pyramid=2 / b_adapt=2 / b_bias=0 / direct=3 / weightb=1 / open_gop=0 / weightp=2 / keyint=240 / keyint_min=23 / scenecut=40 / intra_refresh=0 / rc=2pass / mbtree=0 / bitrate=2200 / ratetol=1.0 / qcomp=0.60 / qpmin=0:0:0 / qpmax=69:69:69 / qpstep=4 / cplxblur=20.0 / qblur=0.5 / ip_ratio=1.40 / pb_ratio=1.30 / aq=1:1.00 / aq-sensitivity=10.00 / aq-factor=1.00:1.00:1.00 / aq2=0 / aq3=0
Language                    : Japanese
Default                     : Yes
Forced                      : No

Audio #1
ID                          : 2
Format                      : AC-3
Format/Info                 : Audio Coding 3
Commercial name             : Dolby Digital
Codec ID                    : A_AC3
Duration                    : 2 h 9 min
Bit rate mode               : Constant
Bit rate                    : 448 kb/s
Channel(s)                  : 6 channels
Channel layout              : L R C LFE Ls Rs
Sampling rate               : 48.0 kHz
Frame rate                  : 31.250 FPS (1536 SPF)
Bit depth                   : 16 bits
Compression mode            : Lossy
Stream size                 : 414 MiB (14%)
Title                       : Українська
Language                    : Ukrainian
Service kind                : Complete Main
Default                     : Yes
Forced                      : No

Audio #2
ID                          : 3
Format                      : AC-3
Format/Info                 : Audio Coding 3
Commercial name             : Dolby Digital
Codec ID                    : A_AC3
Duration                    : 2 h 9 min
Bit rate mode               : Constant
Bit rate                    : 448 kb/s
Channel(s)                  : 6 channels
Channel layout              : L R C LFE Ls Rs
Sampling rate               : 48.0 kHz
Frame rate                  : 31.250 FPS (1536 SPF)
Bit depth                   : 16 bits
Compression mode            : Lossy
Stream size                 : 414 MiB (14%)
Language                    : Japanese
Service kind                : Complete Main
Default                     : No
Forced                      : No

Text #1
ID                          : 4
Format                      : UTF-8
Codec ID                    : S_TEXT/UTF8
Codec ID/Info               : UTF-8 Plain Text
Language                    : Ukrainian
Default                     : No
Forced                      : No

Text #2
ID                          : 5
Format                      : UTF-8
Codec ID                    : S_TEXT/UTF8
Codec ID/Info               : UTF-8 Plain Text
Language                    : English
Default                     : No
Forced                      : No
Скріншоти



Озвучено творчим об'єднанням:
Ролі озвучили: Юля Малахова, Ольга Мотрич, Євген Малуха, Роман Чупіс, Олексій Сафін, Матвій Ніколаєв та Влад Ковалевський.


Авторський реліз (завантажувати можна без реєстрації)
 Трекер:    Зареєстрований   

Завантажити / скачати фільм українською



відео для новачків



 Зареєстрований:   2020-02-12 18:25
 Розмір:   2.79 GB 
 Оцінка фільму:   9.7/10 (Голосів: 31)
   
bot 
робот


З нами з: 30.09.07
Востаннє: 26.05.05
Повідомлень: 24572

2020-02-12 18:25  
Тему перенесено з Анонси релізів до форуму Фільми


Цікава ідея

Yarik M 
VIP


З нами з: 25.10.12
Востаннє: 28.05.20
Повідомлень: 531

2020-02-12 20:38  
Колись дивився цей фільм. На imdb стоїть 8. Люблю самурайську тематику.
Дякую за озвучення.

rev123 
Свій


З нами з: 05.04.13
Востаннє: 12.03.20
Повідомлень: 61

2020-02-17 03:13  
Живий фільм! Вартий уваги!
Nickolassssssss 
VIP


З нами з: 31.05.14
Востаннє: 28.05.20
Повідомлень: 295

2020-02-18 14:54  
Гарний фільм, гарне озвучення.
MelnikSerg 
Частий відвідувач


З нами з: 27.01.17
Востаннє: 28.05.20
Повідомлень: 35

2020-02-19 11:09  
Несподівано спокійний, ліричний фільм на самурайську тему. Приємно дивитись.
rt2517 
Новенький


З нами з: 12.08.10
Востаннє: 28.05.20
Повідомлень: 7

2020-02-24 20:07  
Найкраще, що я бачив на японську тематику. Обов'язково для всіх хто цікавиться Японією!
kinoroman 
Свій


З нами з: 04.12.16
Востаннє: 28.05.20
Повідомлень: 143

2020-03-28 20:25  
Гарний фільм про інший бік кодексу самурая - кодекс людини. 10/10.
Дякую всім причетним до релізу.

яфіук56н 
VIP


З нами з: 15.11.12
Востаннє: 28.05.20
Повідомлень: 351

2020-04-11 01:02  
Якісна кінострічка.
Дякую.

Ваш часовий пояс: GMT + 2 Години

Нова тема   Відповісти