Кролик Джоджо / Jojo Rabbit (2019) Remux 1080p 3xUkr/Eng | Sub 2xUkr/Eng

Нові коментарі

Нова тема   Відповісти
Сторінка:  1, 2  наступна
Автор Повідомлення
Anonymous 







2020-02-11 23:58  


Кролик Джоджо / Jojo Rabbit (2019) Remux 1080p 2xUkr/Eng | Sub 3xUkr/Eng



«An anti-hate satire»



Кролик Джоджо / Jojo Rabbit (2019) Remux 1080p 3xUkr/Eng | Sub 2xUkr/Eng



Жанр: сатирична комедія, драма
Країна: США, Нова Зеландія, Чехія






Оскар і премія Британської кіноакадемії за найкращий адаптований сценарій


Детальніше про основні нагороди та номінації:
Міжнародний кінофестиваль у Торонто - 2019

Переможець (1):

Гран-прі (вибір глядачів) - Найкращий фільм

Оскар - 2020 (за 2019 рік)

Переможець (1):

Найкращий адаптований сценарій - Тайка Вайтіті / Taika Waititi

Номінації (5):

Найкращий фільм

Найкращий монтаж

Найкращий дизайн костюмів

Найкраща робота художника-постановника

Найкраща жіноча роль другого плану - Скарлет Йогансен / Scarlett Johansson

Золотий Глобус - 2020 (за 2019 рік)

Номінації (2):

Найкращий фільм (комедія або мюзикл)

Найкраща чоловіча роль (комедія або мюзикл) - Роман Ґріффін Девіс / Roman Griffin Davis

Британська академія телебачення та кіномистецтва - Премія BAFTA - 2020 (за 2019 рік)

Переможець (1):

Найкращий адаптований сценарій - Тайка Вайтіті / Taika Waititi

Номінації (5):

Найкращий монтаж

Найкраща музика до фільму

Найкращий дизайн костюмів

Найкраща робота художника-постановника

Найкраща жіноча роль другого плану - Скарлет Йогансен / Scarlett Johansson


Кінокомпанія: TSG Entertainment, Piki Films, Defender Films, Czech Anglo Productions
Режисер: Тайка Вайтіті / Taika Waititi
Актори: Роман Ґріффін Девіс / Roman Griffin Davis, Томасін МакКензі / Thomasin McKenzie, Скарлет Йогансен / Scarlett Johansson, Тайка Вайтіті / Taika Waititi, Сем Роквел / Sam Rockwell, Ребел Вілсон / Rebel Wilson, Алфі Аллен / Alfie Allen, Стівен Мерчант / Stephen Merchant, Арчі Єйтс / Archie Yates та інші


Сюжет:
«Кролик Джоджо» - це сатиричний фільм про Другу світову війну, що розкаже про самотнього німецького хлопчика (Роман Ґріффін Девіс у ролі Джоджо), чий світогляд перевертається з ніг на голову, коли він дізнається, що його самотня мати (Скарлет Йогансен) переховує на горищі їхнього дому молоду єврейську дівчину (Томасін МакКензі). Джоджо буде змушений поставити під сумнів сліпу віру в нацизм і правоту свого дурнуватого уявного друга Адольфа Гітлера (Тайка Вайтіті).



Рейтинг MPAA: PG-13 - не рекомендується для перегляду дітям до 13 років
Вікова категорія: 12+


Тривалість: 01:48:23
Якість: Remux 1080p

Відео:
кодек:
розмір кадру: 1920x1080
бітрейт: ~26800 кб/с

Аудіо # 1:
мова: українська
переклад: професійний дубльований
кодек: 2.0 (стерео)
бітрейт: 192 кб/с
Інформація про дубляж




Аудіо # 2:
мова: українська
переклад: багатоголосий закадровий
кодек: 2.0 (стерео)
бітрейт: 192 кб/с

Аудіо # 3:
мова: українська
переклад: одноголосий закадровий [Burton Jey]
кодек: 5.1
бітрейт: 448 кб/с

Аудіо # 4:
мова: англійська
переклад: оригінал
кодек: 5.1
бітрейт: 448 кб/с

Аудіо # 5:
мова: англійська
переклад: оригінал
кодек: -HD MA 5.1
бітрейт: 3341 кб/с

Аудіо # 6:
мова: англійська
переклад: коментарі режисера Тайки Вайтіті
кодек: 2.0
бітрейт: 224 кб/с

Субтитри # 1 (Full):
мова: українська
тип: програмні (м'які)
формат: *.srt
переклад: офіційний, Анастасія Жищинська
Українські офіційні субтитри також можна завантажити окремо: Subscene

Субтитри # 2 (Full):
мова: українська
тип: програмні (м'які)
формат: *.srt
редагування: SurFutur
Українські субтитри також можна завантажити окремо з OpenSubtitles або Subscene

Субтитри # 3-4 (Full, SDH):
мова: англійська
тип: програмні (м'які)
формат: *.srt


Збережено оригінальні розділи, як на Blu-ray.

Info
Код:
General
Complete name                            : Jojo Rabbit (2019) Remux 1080p [3xUkr_Eng] [ViDeO_Hurtom].
Format                                   :
Format version                           : Version 4
File size                                : 24.0 GiB
Duration                                 : 1 h 48 min
Overall bit rate mode                    : Variable
Overall bit rate                         : 31.7 Mb/s
Movie name                               : Кролик Джоджо / Jojo Rabbit (2019)
Encoded date                             : UTC 2020-05-22 08:27:10
Writing application                      : v30.1.0 ('Forever And More') 64-bit
Writing library                          : libebml v1.3.6 + v1.4.9
Cover                                    : Yes
Attachments                              : cover.jpeg

Video
ID                                       : 1
Format                                   : AVC
Format/Info                              : Advanced Video Codec
Format profile                           : [email protected]
Format settings                          : CABAC / 2 Ref Frames
Format settings, CABAC                   : Yes
Format settings, RefFrames               : 2 frames
Codec ID                                 : V_MPEG4/ISO/AVC
Duration                                 : 1 h 48 min
Bit rate mode                            : Variable
Bit rate                                 : 26.8 Mb/s
Width                                    : 1 920 pixels
Height                                   : 1 080 pixels
Display aspect ratio                     : 16:9
Frame rate mode                          : Constant
Frame rate                               : 23.976 (24000/1001) FPS
Color space                              : YUV
Chroma subsampling                       : 4:2:0
Bit depth                                : 8 bits
Scan type                                : Progressive
Bits/(Pixel*Frame)                       : 0.540
Stream size                              : 20.3 GiB (85%)
Title                                    : iFT
Language                                 : English
Default                                  : Yes
Forced                                   : No

Audio #1
ID                                       : 2
Format                                   : AC-3
Format/Info                              : Audio Coding 3
Commercial name                          : Dolby Digital
Codec ID                                 : A_AC3
Duration                                 : 1 h 48 min
Bit rate mode                            : Constant
Bit rate                                 : 192 kb/s
Channel(s)                               : 2 channels
Channel layout                           : L R
Sampling rate                            : 48.0 kHz
Frame rate                               : 31.250 FPS (1536 SPF)
Bit depth                                : 16 bits
Compression mode                         : Lossy
Stream size                              : 149 MiB (1%)
Title                                    : Dub [Stereo], 2.0 192 Kbps
Language                                 : Ukrainian
Service kind                             : Complete Main
Default                                  : Yes
Forced                                   : No

Audio #2
ID                                       : 3
Format                                   : AC-3
Format/Info                              : Audio Coding 3
Commercial name                          : Dolby Digital
Codec ID                                 : A_AC3
Duration                                 : 1 h 48 min
Bit rate mode                            : Constant
Bit rate                                 : 192 kb/s
Channel(s)                               : 2 channels
Channel layout                           : L R
Sampling rate                            : 48.0 kHz
Frame rate                               : 31.250 FPS (1536 SPF)
Bit depth                                : 16 bits
Compression mode                         : Lossy
Stream size                              : 149 MiB (1%)
Title                                    : Ictv [Stereo], 2.0 192 Kbps
Language                                 : Ukrainian
Service kind                             : Complete Main
Default                                  : No
Forced                                   : No

Audio #3
ID                                       : 4
Format                                   : AC-3
Format/Info                              : Audio Coding 3
Commercial name                          : Dolby Digital
Codec ID                                 : A_AC3
Duration                                 : 1 h 48 min
Bit rate mode                            : Constant
Bit rate                                 : 448 kb/s
Channel(s)                               : 6 channels
Channel layout                           : L R C LFE Ls Rs
Sampling rate                            : 48.0 kHz
Frame rate                               : 31.250 FPS (1536 SPF)
Bit depth                                : 16 bits
Compression mode                         : Lossy
Stream size                              : 347 MiB (1%)
Title                                    : AVO [Burton Jey], 5.1 448 kbps
Language                                 : Ukrainian
Service kind                             : Complete Main
Default                                  : No
Forced                                   : No

Audio #4
ID                                       : 5
Format                                   : AC-3
Format/Info                              : Audio Coding 3
Commercial name                          : Dolby Digital
Codec ID                                 : A_AC3
Duration                                 : 1 h 48 min
Bit rate mode                            : Constant
Bit rate                                 : 448 kb/s
Channel(s)                               : 6 channels
Channel layout                           : L R C LFE Ls Rs
Sampling rate                            : 48.0 kHz
Frame rate                               : 31.250 FPS (1536 SPF)
Bit depth                                : 16 bits
Compression mode                         : Lossy
Stream size                              : 347 MiB (1%)
Title                                    : 5.1 448 kbps
Language                                 : English
Service kind                             : Complete Main
Default                                  : No
Forced                                   : No

Audio #5
ID                                       : 6
Format                                   : XLL
Format/Info                              : Digital Theater Systems
Commercial name                          : -HD Master Audio
Codec ID                                 : A_DTS
Duration                                 : 1 h 48 min
Bit rate mode                            : Variable
Bit rate                                 : 3 341 kb/s
Channel(s)                               : 6 channels
Channel layout                           : C L R Ls Rs LFE
Sampling rate                            : 48.0 kHz
Frame rate                               : 93.750 FPS (512 SPF)
Bit depth                                : 24 bits
Compression mode                         : Lossless
Stream size                              : 2.53 GiB (11%)
Title                                    : -HD MA, 6 ch, 3341 Кбт/с
Language                                 : English
Default                                  : No
Forced                                   : No

Audio #6
ID                                       : 7
Format                                   : AC-3
Format/Info                              : Audio Coding 3
Commercial name                          : Dolby Digital
Codec ID                                 : A_AC3
Duration                                 : 1 h 48 min
Bit rate mode                            : Constant
Bit rate                                 : 224 kb/s
Channel(s)                               : 2 channels
Channel layout                           : L R
Sampling rate                            : 48.0 kHz
Frame rate                               : 31.250 FPS (1536 SPF)
Bit depth                                : 16 bits
Compression mode                         : Lossy
Stream size                              : 174 MiB (1%)
Title                                    : , 2 ch, 224 Кбт/с - Commentary by Director Taika Waititi
Language                                 : English
Service kind                             : Complete Main
Default                                  : No
Forced                                   : No

Text #1
ID                                       : 8
Format                                   : UTF-8
Codec ID                                 : S_TEXT/UTF8
Codec ID/Info                            : UTF-8 Plain Text
Duration                                 : 1 h 48 min
Bit rate                                 : 83 b/s
Count of elements                        : 1460
Stream size                              : 65.8 KiB (0%)
Title                                    : Full (official)
Language                                 : Ukrainian
Default                                  : Yes
Forced                                   : No

Text #2
ID                                       : 9
Format                                   : UTF-8
Codec ID                                 : S_TEXT/UTF8
Codec ID/Info                            : UTF-8 Plain Text
Duration                                 : 1 h 42 min
Bit rate                                 : 96 b/s
Count of elements                        : 1364
Stream size                              : 72.7 KiB (0%)
Title                                    : Full (by SurFutur)
Language                                 : Ukrainian
Default                                  : No
Forced                                   : No

Text #3
ID                                       : 10
Format                                   : UTF-8
Codec ID                                 : S_TEXT/UTF8
Codec ID/Info                            : UTF-8 Plain Text
Duration                                 : 1 h 47 min
Bit rate                                 : 61 b/s
Count of elements                        : 1635
Stream size                              : 48.8 KiB (0%)
Title                                    : Full
Language                                 : English
Default                                  : No
Forced                                   : No

Text #4
ID                                       : 11
Format                                   : UTF-8
Codec ID                                 : S_TEXT/UTF8
Codec ID/Info                            : UTF-8 Plain Text
Duration                                 : 1 h 48 min
Bit rate                                 : 64 b/s
Count of elements                        : 1795
Stream size                              : 51.5 KiB (0%)
Title                                    : SDH
Language                                 : English
Default                                  : No
Forced                                   : No

Menu
00:00:00.000                             : en:Chapter 01
00:06:04.906                             : en:Chapter 02
00:09:25.523                             : en:Chapter 03
00:13:34.522                             : en:Chapter 04
00:16:17.059                             : en:Chapter 05
00:20:09.333                             : en:Chapter 06
00:27:09.461                             : en:Chapter 07
00:31:02.861                             : en:Chapter 08
00:36:30.146                             : en:Chapter 09
00:39:45.967                             : en:Chapter 10
00:44:13.192                             : en:Chapter 11
00:49:53.782                             : en:Chapter 12
00:53:17.194                             : en:Chapter 13
00:59:35.113                             : en:Chapter 14
01:03:34.019                             : en:Chapter 15
01:08:32.483                             : en:Chapter 16
01:14:20.498                             : en:Chapter 17
01:17:36.485                             : en:Chapter 18
01:22:13.387                             : en:Chapter 19
01:26:20.675                             : en:Chapter 20
01:29:24.901                             : en:Chapter 21
01:32:28.042                             : en:Chapter 22
01:37:15.371                             : en:Chapter 23
01:41:03.015                             : en:Chapter 24

Скріншоти


|



Джерело: &
Особиста оцінка: 0 - не дивився


Над доріжками працювали: PuMa.ua, Bohdan237, Sando7, Burton Jey


Кролик Джоджо / Jojo Rabbit (2019) Remux 1080p 3xUkr/Eng | Sub 2xUkr/Eng




Авторський реліз (завантажувати можна без реєстрації)
 Трекер:    Зареєстрований   

Завантажити / скачати фільм українською



відео для новачків



 Зареєстрований:   2020-05-22 21:03
 Розмір:   23.99 GB 
 Оцінка фільму:   9/10 (Голосів: 30)
 ЗАЛИШАЙТЕСЬ ЯКОМОГА ДОВШЕ НА РОЗДАЧІ! ЗАВАНТАЖИВ САМ - ДАЙ ЗАВАНТАЖИТИ ІНШИМ!
   
Pasha909 
Новенький


З нами з: 27.01.20
Востаннє: 25.05.20
Повідомлень: 8

2020-02-12 01:18  
Трейлер цього фiльму выходив у дубляжi, як i в кiнотеатрi, коли ви зможете його додати.
UAbomber 
Частий відвідувач


З нами з: 03.01.20
Востаннє: 24.05.20
Повідомлень: 25

2020-02-12 01:19  
Незбалансований фільм
Anonymous 







2020-02-12 01:22  
Pasha909 написано:
Трейлер цього фiльму выходив у дубляжi, як i в кiнотеатрi, коли ви зможете його додати.

я трейлер додавати не збирався
багато трейлерів виходить в дубляжі - це означає , що він відразу, чи взагалі буде
якщо буде , то додамо відразу, як він буде в нас Happy

SKAT 
Свій


З нами з: 27.07.09
Востаннє: 25.05.20
Повідомлень: 104

2020-02-12 15:55  
UAbomber
У чому полягає цей дисбаланс? У сюжеті? Режисурі?
Ще не дивився цікавить загальне враження.

+380954897458 
VIP


З нами з: 02.06.17
Востаннє: 25.05.20
Повідомлень: 837

2020-02-13 00:26  
SKAT
Все там збалансовано і так як повинно бути. Моє загальне враження - бімба! Серйозних і дорослих фільмів на цю тему було дуже багато, а от погляд з точки зору дитини - щось свіже і незвичне. Вайтіті зміг ідеально збалансувати фарс і драму. На Оскарі я вболівав за цього скаженого маорі. Неймовірно радий, що він отримав нагороду. Заслужив!

bot 
робот


З нами з: 30.09.07
Востаннє: 26.05.05
Повідомлень: 24547

2020-03-07 01:15  
Тему перенесено з Фільми до форуму Фільми в HD


antik_2008

Pasha909 
Новенький


З нами з: 27.01.20
Востаннє: 25.05.20
Повідомлень: 8

2020-03-11 18:54  
Anonymous
Ви можете додати якiсний дубляж ?

Anonymous 







2020-03-11 20:39  
Pasha909 написано:

Anonymous
Ви можете додати якiсний дубляж ?

Він у вас є ?

olyx 
Відео Гуртом - підтримка та поширення
Відео Гуртом - підтримка та поширення


З нами з: 26.01.10
Востаннє: 25.05.20
Повідомлень: 268

2020-03-12 02:02  
Звук просто жахливий - дарма вантажив...
Anonymous 







2020-03-12 02:31  
olyx написано:
Звук просто жахливий - дарма вантажив...

там 4 різних озвучення
поки що так Happy

olyx 
Відео Гуртом - підтримка та поширення
Відео Гуртом - підтримка та поширення


З нами з: 26.01.10
Востаннє: 25.05.20
Повідомлень: 268

2020-03-12 12:32  
Вірю - просто попереджаю інших учасників. Раніше якось міс можна було дивитись, але це повторюся жах
zdlr 
Свій


З нами з: 07.12.12
Востаннє: 26.05.20
Повідомлень: 76

2020-03-13 09:36  
Звук страшний.
Anonymous 







2020-03-13 10:00  
zdlr написано:
Звук страшний.

Добре, що такий є Happy
Цитата:

там 4 різних озвучення

taras89 
Новенький


З нами з: 19.10.09
Востаннє: 25.05.20
Повідомлень: 10

2020-03-13 14:14  
у якому столітті буде нормальна озвучка????
zdlr 
Свій


З нами з: 07.12.12
Востаннє: 26.05.20
Повідомлень: 76

2020-03-13 23:52  
Anonymous
Чесно вам скажу у мене один канал звуку. Я написав програму яка все викачує з торентів і переганяє в mp4 і з одною українською стрічкою. Тому тільки таке. Коротше, почекаю.

vash1 
VIP


З нами з: 16.03.16
Востаннє: 25.05.20
Повідомлень: 257

2020-04-09 12:25  
Чи знає хтось коли буде звук не Mic ?

Вже кілька місяців терпляче очікую щоб переглянути Happy

ВАВУНЯ 
VIP


З нами з: 30.06.15
Востаннє: 24.05.20
Повідомлень: 294

2020-04-09 17:30  
Цитата:
Чи знає хтось коли буде звук не Mic ?

Вже кілька місяців терпляче очікую щоб переглянути Happy

приєднуюсь до запитання.

O_omarella! 
Поважний учасник


З нами з: 14.06.13
Востаннє: 22.05.20
Повідомлень: 191

2020-04-10 19:26  
Нарешті я подивився шедевр!!!!!)))))))))
Anonymous 







2020-04-11 23:03  
Якщо буде інший звук , то він відразу буде і на трекері , а так добре , що і такий є
vash1 
VIP


З нами з: 16.03.16
Востаннє: 25.05.20
Повідомлень: 257

2020-04-12 11:20  
Anonymous написано:
Якщо буде інший звук , то він відразу буде і на трекері , а так добре , що і такий є


Цей момент зрозумілий. Цікавила інформація - "коли", якщо хтось нею володіє.

На blu-ray.com та iTunes, наприклад, згадки про реліз з українською доріжкою наразі нема.


Anonymous 







2020-05-22 12:44  
Торент файл оновлено. Заміна дубляжу на якісніший , та додано озвучку з ictv
Lmkk 
Частий відвідувач


З нами з: 04.07.09
Востаннє: 25.05.20
Повідомлень: 31

2020-05-22 12:53  
Доброго.
"Заміна дубляжу на якісний" - це досі mic чи ні?
Дякую.

leicheman 
Відео Гуртом - фільмокрай
Відео Гуртом - фільмокрай


З нами з: 03.07.14
Востаннє: 26.05.20
Повідомлень: 4868

2020-05-22 12:57  
Lmkk написано:
це досі mic чи ні?

Ні, тепер вже не мік, а хороше стерео)

tilda4334 
VIP


З нами з: 15.08.14
Востаннє: 26.05.20
Повідомлень: 894

2020-05-22 13:00  
leicheman написано:
а хороше стерео)

не знаю як тут, але судячи з авц ріпу, не таке вже й хороше.

leicheman 
Відео Гуртом - фільмокрай
Відео Гуртом - фільмокрай


З нами з: 03.07.14
Востаннє: 26.05.20
Повідомлень: 4868

2020-05-22 13:35  
tilda4334 написано:
не таке вже й хороше

вже також послухав, дійсно не дуже, але принаймні доріжка чиста.

tilda4334 
VIP


З нами з: 15.08.14
Востаннє: 26.05.20
Повідомлень: 894

2020-05-22 15:06  
tilda4334 написано:
не таке вже й хороше

не таке вже й стерео.
leicheman написано:
вже також послухав, дійсно не дуже, але принаймні доріжка чиста.

але, так, трохи краще за мік.

Anonymous 







2020-05-22 18:01  
tilda4334 написано:
не таке вже й стерео.

tilda4334 написано:
але, так, трохи краще за мік.

Буде ще краще

ВАВУНЯ 
VIP


З нами з: 30.06.15
Востаннє: 24.05.20
Повідомлень: 294

2020-05-22 18:18  
Anonymous
коли вже воно буде, якщо ця стрічка вже пройшла навіть по ТБ?!
дякую.

Anonymous 







2020-05-22 18:21  
ВАВУНЯ
навпаки працюємо , щоб вам краще зробити реліз з якісним аудіо

була змога і раніше переглянути , а тепер трохи почекати треба і на вихідних собі переглянути

Ваш часовий пояс: GMT + 2 Години

Нова тема   Відповісти Сторінка:  1, 2  наступна