МініФорс Нові герої / Miniforce New Heroes Rise (2016) 1080p Ukr/Eng

Нові коментарі

Нова тема   Відповісти
Автор Повідомлення
sergiyko.5 
Забанено
Забанено


З нами з: 25.02.16
Востаннє: 29.10.20
Повідомлень: 3648

2020-02-11 09:31  
МініФорс Нові герої / Miniforce New Heroes Rise (2016) 1080p Ukr/Eng

МініФорс Нові герої / Miniforce New Heroes Rise (2016) 1080p Ukr/Eng

Жанр: пригоди, комедія
Країна: Південна Корея
Режисер: Юн Джун Лі

Сюжет:
Пріквел популярного серіалу, що оповідає про створення суперкоманди Мініфорс. Члени команди - чарівні звірятка-пухнастики, але за їх милою зовнішністю ховаються справжні відважні воїни. Доктор Джеремі з лабораторії Мініфорс досліджує «еллініум» - невідома речовина, що містить могутню силу. Зевс, капітан Армії Ящірок, розглядає еллініум з метою створення смертоносної зброї проти людства. Одного разу він атакує лабораторію і викрадає еллініум. Лабораторія Мініфорс скликає суперкоманду - це наші знайомі Вольт, Семмі, Макс і Люсі. До них приєднується Анна, дочка доктора Джеремі. Мініфорс відправляються на боротьбу з Армією Ящірок з метою повернути еллініум. Їм належить безліч випробувань, щоб виконати місію.




Тривалість: 01:07:12
Якість:

Відео: кодек: розмір кадру: 1920 х 1080 бітрейт: 2000 кб/с
Аудіо # 1: мова: українська переклад: багатоголосий закадровий кодек: 2.0 бітрейт: 192 кб/с
Озвучення:
Аудіо # 2: мова: англійська переклад: оригінал кодек: 2.0 бітрейт: 128 кб/с
Про файл:
General
Unique ID : 250751186840640968461282680820725607986 (0xBCA4EC03C81816AE155BBC7FEC3E6E32)
Complete name : D:\Documents\Torrents\MULTSER_2\Mini Forc.New Heroes Rise.2016.1080p..
Format :
Format version : Version 4
File size : 1.09 GiB
Duration : 1 h 7 min
Overall bit rate : 2 304 kb/s
Movie name : Mini Forc New Heroes Rise 2016 1080p by sergiyko
Encoded date : UTC 2020-02-11 07:19:35
Writing application : v42.0.0 ('Overtime') 64-bit
Writing library : libebml v1.3.10 + v1.5.2
Cover : Yes
Attachments : cover.jpeg

Video
ID : 1
Format : AVC
Format/Info : Advanced Video Codec
Format profile : [email protected]
Format settings : CABAC / 3 Ref Frames
Format settings, CABAC : Yes
Format settings, Reference fra : 3 frames
Codec ID : V_MPEG4/ISO/AVC
Duration : 1 h 7 min
Bit rate : 1 981 kb/s
Width : 1 920 pixels
Height : 1 080 pixels
Display aspect ratio : 16:9
Frame rate mode : Constant
Frame rate : 24.000 FPS
Color space : YUV
Chroma subsampling : 4:2:0
Bit depth : 8 bits
Scan type : Progressive
Bits/(Pixel*Frame) : 0.040
Stream size : 960 MiB (86%)
Title : Mini Forc New Heroes Rise 2016
Language : English
Default : Yes
Forced : No
Color range : Limited
Color primaries : BT.709
Transfer characteristics : BT.709
Matrix coefficients : BT.709

Audio #1
ID : 2
Format : AC-3
Format/Info : Audio Coding 3
Commercial name : Dolby Digital
Codec ID : A_AC3
Duration : 1 h 7 min
Bit rate mode : Constant
Bit rate : 192 kb/s
Channel(s) : 2 channels
Channel layout : L R
Sampling rate : 48.0 kHz
Frame rate : 31.250 FPS (1536 SPF)
Compression mode : Lossy
Delay relative to video : -125 ms
Stream size : 93.1 MiB (8%)
Title : MOV | Піксель
Language : Ukrainian
Service kind : Complete Main
Default : Yes
Forced : Yes

Audio #2
ID : 3
Format : LC
Format/Info : Advanced Audio Codec Low Complexity
Codec ID : A_AAC-2
Duration : 1 h 7 min
Bit rate : 128 kb/s
Channel(s) : 2 channels
Channel layout : L R
Sampling rate : 44.1 kHz
Frame rate : 43.066 FPS (1024 SPF)
Compression mode : Lossy
Stream size : 62.1 MiB (6%)
Language : English
Default : No
Forced : No
Скріншоти:


Запис: xslim
Зведення: sergiyko


 Трекер:    Зареєстрований   

Завантажити / скачати мультфільм українською



відео для новачків



 Зареєстрований:   2020-02-11 09:31
 Розмір:   1.09 GB 
 Оцінка мультфільму:   10/10 (Голосів: 4)
   
Інші релізи
Ваш часовий пояс: GMT + 2 Години

Нова тема   Відповісти