Шалений Мадагаскар / Madly Madagascar (2013) 1080p 2xUkr/Eng | Sub Ukr/Eng

Нові коментарі

Нова тема   Відповісти
Останній раз роздавалося flecks (2021-03-04)
Автор Повідомлення
Anonymous 







2020-02-11 01:18  
Шалений Мадагаскар / Madly Madagascar (2013) 1080p 2xUkr/Eng | Sub Ukr/Eng

Шалений Мадагаскар / Madly Madagascar (2013) 1080p 2xUkr/Eng | Sub Ukr/Eng


Жанр: пригодницький, сімейний, комедія, дитячий, анімація
Країна: США
Режисер: Девід Сорен
Актори: Бен Стіллер, Кріс Рок, Джада Пінкетт Сміт, Саша Барон Коен та інші

Сюжет:
Історія, розказана в цьому мультфільмі, сталася з улюбленими героями між другою і третьою частинами, якраз напередодні Дня Святого Валентина. Алекс дуже любить це свято і завжди ретельно до нього готується, адже він упевнений, що тільки любов може врятувати весь світ. Раніше він отримував тонни листівок на це свято від прихильниць, але в Африці не прийнято святкувати його, і він збирається разом зі своїми друзями організувати справжнє торжество з нагоди Дня Всіх Закоханих.

Тривалість: 00:22:04
Якість:

Відео:
кодек:
розмір кадру: 1912 x 1072
бітрейт: 5 279 кб/с

Аудіо # 1:
мова: українська
переклад: професійний дубльований
кодек: AC-3 2.0
бітрейт: 192 кб/с

Аудіо # 2:
мова: українська
переклад: одноголосий закадровий | UAVoice
кодек: AC-3 2.0
бітрейт: 192 кб/с

Аудіо # 3:
мова: англійська
переклад: оригінал
кодек: AC-3 5.1
бітрейт: 448 кб/с

Субтитри # 1: (Full)
мова: українська
тип: програмні (м'які)
формат: *.srt

Субтитри # 2: (Full)
мова: англійська
тип: програмні (м'які)
формат: *.srt


Info
Код:
General
Unique ID                                : 255918832227714355324586537166380962207 (0xC0882C9A77D847D18D9566164E23919F)
Complete name                            : Madly Madagascar (2013) 1080p [2xUKR_ENG] [Hurtom].
Format                                   :
Format version                           : Version 4
File size                                : 965 MiB
Duration                                 : 22 min 5 s
Overall bit rate                         : 6 107 kb/s
Movie name                               : Шалений Мадагаскар / Madly Madagascar (2013)
Encoded date                             : UTC 2020-02-11 21:02:09
Writing application                      : v20.0.0 ('I Am The Sun') 64-bit
Writing library                          : libebml v1.3.5 + v1.4.8
Cover                                    : Yes
Attachments                              : Cover.jpg

Video
ID                                       : 1
Format                                   : AVC
Format/Info                              : Advanced Video Codec
Format profile                           : [email protected]
Format settings                          : CABAC / 4 Ref Frames
Format settings, CABAC                   : Yes
Format settings, Reference frames        : 4 frames
Codec ID                                 : V_MPEG4/ISO/AVC
Duration                                 : 22 min 4 s
Bit rate                                 : 5 279 kb/s
Width                                    : 1 912 pixels
Height                                   : 1 072 pixels
Display aspect ratio                     : 16:9
Frame rate mode                          : Constant
Frame rate                               : 23.976 (24000/1001) FPS
Color space                              : YUV
Chroma subsampling                       : 4:2:0
Bit depth                                : 8 bits
Scan type                                : Progressive
Bits/(Pixel*Frame)                       : 0.107
Stream size                              : 834 MiB (86%)
Title                                    : Шалений Мадагаскар / Madly Madagascar (2013)
Language                                 : English
Default                                  : Yes
Forced                                   : No
Color range                              : Limited
Color primaries                          : BT.709
Transfer characteristics                 : BT.709
Matrix coefficients                      : BT.709

Audio #1
ID                                       : 2
Format                                   : AC-3
Format/Info                              : Audio Coding 3
Commercial name                          : Dolby Digital
Codec ID                                 : A_AC3
Duration                                 : 20 min 59 s
Bit rate mode                            : Constant
Bit rate                                 : 192 kb/s
Channel(s)                               : 2 channels
Channel layout                           : L R
Sampling rate                            : 48.0 kHz
Frame rate                               : 31.250 FPS (1536 SPF)
Compression mode                         : Lossy
Stream size                              : 28.8 MiB (3%)
Title                                    : / 2.0 Ch / 192 kbps / ПД / TET
Language                                 : Ukrainian
Service kind                             : Complete Main
Default                                  : Yes
Forced                                   : Yes

Audio #2
ID                                       : 3
Format                                   : AC-3
Format/Info                              : Audio Coding 3
Commercial name                          : Dolby Digital
Codec ID                                 : A_AC3
Duration                                 : 22 min 5 s
Bit rate mode                            : Constant
Bit rate                                 : 192 kb/s
Channel(s)                               : 2 channels
Channel layout                           : L R
Sampling rate                            : 48.0 kHz
Frame rate                               : 31.250 FPS (1536 SPF)
Compression mode                         : Lossy
Stream size                              : 30.3 MiB (3%)
Title                                    : / 2.0 Ch / 192 kbps / БЗ / UAVoice
Language                                 : Ukrainian
Service kind                             : Complete Main
Default                                  : No
Forced                                   : No

Audio #3
ID                                       : 4
Format                                   : AC-3
Format/Info                              : Audio Coding 3
Commercial name                          : Dolby Digital
Codec ID                                 : A_AC3
Duration                                 : 22 min 5 s
Bit rate mode                            : Constant
Bit rate                                 : 448 kb/s
Channel(s)                               : 6 channels
Channel layout                           : L R C LFE Ls Rs
Sampling rate                            : 48.0 kHz
Frame rate                               : 31.250 FPS (1536 SPF)
Compression mode                         : Lossy
Stream size                              : 70.8 MiB (7%)
Title                                    : / 5.1 Ch / 448 kbps / Original
Language                                 : English
Service kind                             : Complete Main
Default                                  : No
Forced                                   : No

Text #1
ID                                       : 5
Format                                   : UTF-8
Codec ID                                 : S_TEXT/UTF8
Codec ID/Info                            : UTF-8 Plain Text
Duration                                 : 20 min 52 s
Bit rate                                 : 127 b/s
Count of elements                        : 375
Stream size                              : 19.6 KiB (0%)
Title                                    : Full
Language                                 : Ukrainian
Default                                  : Yes
Forced                                   : No

Text #2
ID                                       : 6
Format                                   : UTF-8
Codec ID                                 : S_TEXT/UTF8
Codec ID/Info                            : UTF-8 Plain Text
Duration                                 : 20 min 49 s
Bit rate                                 : 90 b/s
Count of elements                        : 465
Stream size                              : 13.8 KiB (0%)
Title                                    : Full
Language                                 : English
Default                                  : No
Forced                                   : No
Світлини




Джерело: &
Особиста оцінка: 0 - не дивився


Золотий реліз (завантажене не впливає на рейтинг)
 Трекер:    Зареєстрований   

Завантажити / скачати мультфільм українською



відео для новачків



 Зареєстрований:   2020-02-11 23:04
 Розмір:   965 MB 
 Оцінка мультфільму:   9.6/10 (Голосів: 5)
   
Інші релізи
xslim 
Відео Гуртом - фільмокрай
Відео Гуртом - фільмокрай


З нами з: 04.03.09
Востаннє: 04.03.21
Повідомлень: 1412

2020-02-11 10:22  
Anonymous 







2020-02-11 23:05  
Додано доріжку від 
Anonymous 







2020-02-12 08:48  
xslim
До речі, дякую!

xslim 
Відео Гуртом - фільмокрай
Відео Гуртом - фільмокрай


З нами з: 04.03.09
Востаннє: 04.03.21
Повідомлень: 1412

2020-02-12 10:33  
І тобі теж дякую що зробив реліз.
Anonymous 







2020-02-12 22:33  
xslim
Будь ласка =)

Ваш часовий пояс: GMT + 2 Години

Нова тема   Відповісти