Робін Гуд / Robin Hood (1973) 1080p H.265 3xUkr/Eng | Sub Ukr/Eng

Нові коментарі

Нова тема   Відповісти
Автор Повідомлення
Anonymous 







2020-02-11 01:08  
Робін Гуд / Robin Hood (1973) 1080p H.265 3xUkr/Eng | Sub Ukr/Eng

Робін Гуд / Robin Hood (1973) 1080p H.265 3xUkr/Eng | Sub Ukr/Eng


Жанр: мелодрама, комедія, пригоди
Країна: США
Кінокомпанія: Walt Disney Studios
Режисер: Вольфганг Райтерман
Актори: Brian Bedford, Phil Harris, Roger Miller

Сюжет:
Ласкаво просимо в дрімучий Шервудський ліс, де ти зустрінеш хоробре й забавне лисеня на ім’я Робін Гуд і його кращого друга Крихітку Джона - великого добродушного ведмедя. Цю веселу компанію давно розшукує шериф Нотінгема. Він готує друзям пастку: на турнірі лучників Робін Гуда буде чекати засідка. Але відважне лисеня все одно збирається брати участь у змаганні: адже тільки там у нього є шанс побачити красуню Маріан. І ось турнір почався, однак шериф ніяк не може впізнати серед учасників переодягненого Робін Гуда. Правда, один точний постріл здатний відразу видати найкращого стрільця в королівстві.

Тривалість: 01:23:01
Якість:

Відео:
кодек: H.265 (HEVC)
розмір кадру: 1800 x 1080
бітрейт: 6 275 кб/с
бітова глибина: 10 біт

Увага! Перед завантаженням переконайтесь, що ваш пристрій відтворення (та/або ПЗ) підтримує H.265 (HEVC)

Аудіо # 1:
мова: українська
переклад: професійний дубльований
кодек: AC-3 2.0
бітрейт: 192 кб/с

Аудіо # 2:
мова: українська
переклад: багатоголосий закадровий | Клан Кайзоку
кодек: AC-3 2.0
бітрейт: 192 кб/с
Про озвучення
Озвучували: Василь Ті, Бітарі, Дракул, Реніко, Мелорін, Широ, Солмарін, Веселий Роджер та Локі.
Робота зі звуком: Клан Кайзоку.
На замовлення: Шева777.
Аудіо # 3:
мова: українська
переклад: одноголосий закадровий (Slava Rudik)
кодек: AC-3 2.0
бітрейт: 192 кб/с

Аудіо # 4:
мова: англійська
переклад: оригінал
кодек: 5.1
бітрейт: 1510 кб/с

Субтитри # 1: (Full by MutuLI)
мова: українська ,
тип: програмні (м'які)
формат: *.srt

Субтитри # 2-3: (Full, SDH)
мова: англійська
тип: програмні (м'які)
формат: *.srt


Info
Код:
General
Unique ID                                : 65712607575121906843988618323087362558 (0x316FC9B189CE10C1A5BA816A879C89FE)
Complete name                            : Robin Hood (1973) 1080p H.265 [3xUKR_ENG] [Hurtom].
Format                                   :
Format version                           : Version 4
File size                                : 4.85 GiB
Duration                                 : 1 h 23 min
Overall bit rate                         : 8 359 kb/s
Movie name                               : Робін Гуд / Robin Hood (1973)
Encoded date                             : UTC 2020-03-04 07:17:21
Writing application                      : v20.0.0 ('I Am The Sun') 64-bit
Writing library                          : libebml v1.3.5 + v1.4.8
Cover                                    : Yes
Attachments                              : Cover.jpg

Video
ID                                       : 1
Format                                   : HEVC
Format/Info                              : High Efficiency Video Coding
Format profile                           : Main [email protected]@High
Codec ID                                 : V_MPEGH/ISO/HEVC
Duration                                 : 1 h 23 min
Bit rate                                 : 6 274 kb/s
Width                                    : 1 800 pixels
Height                                   : 1 080 pixels
Display aspect ratio                     : 5:3
Frame rate mode                          : Constant
Frame rate                               : 23.976 (23976/1000) FPS
Original frame rate                      : 23.976 (24000/1001) FPS
Color space                              : YUV
Chroma subsampling                       : 4:2:0
Bit depth                                : 10 bits
Bits/(Pixel*Frame)                       : 0.135
Stream size                              : 3.64 GiB (75%)
Title                                    : Робін Гуд / Robin Hood (1973)
Writing library                          : x265 3.2.1+1-b5c86a64bbbe:[Windows][MSVC 1923][64 bit] 10bit
Encoding settings                        : cpuid=1111039 / frame-threads=3 / numa-pools=12 / wpp / no-pmode / no-pme / no-psnr / no-ssim / log-level=2 / input-csp=1 / input-res=1800x1080 / interlace=0 / total-frames=119448 / level-idc=41 / high-tier=1 / uhd-bd=0 / ref=5 / no-allow-non-conformance / no-repeat-headers / annexb / no-aud / no-hrd / info / hash=0 / no-temporal-layers / open-gop / min-keyint=23 / keyint=240 / gop-lookahead=0 / bframes=10 / b-adapt=2 / b-pyramid / bframe-bias=0 / rc-lookahead=60 / lookahead-slices=4 / scenecut=40 / radl=0 / no-splice / no-intra-refresh / ctu=32 / min-cu-size=8 / rect / amp / max-tu-size=32 / tu-inter-depth=4 / tu-intra-depth=4 / limit-tu=1 / rdoq-level=2 / dynamic-rd=0.00 / no-ssim-rd / signhide / no-tskip / nr-intra=0 / nr-inter=0 / no-constrained-intra / no-strong-intra-smoothing / max-merge=4 / limit-refs=2 / limit-modes / me=3 / subme=7 / merange=57 / temporal-mvp / no-hme / weightp / weightb / no-analyze-src-pics / deblock=-3:-3 / no-sao / no-sao-non-deblock / rd=6 / selective-sao=0 / no-early-skip / no-rskip / no-fast-intra / no-tskip-fast / no-cu-lossless / no-b-intra / no-splitrd-skip / rdpenalty=0 / psy-rd=2.00 / psy-rdoq=1.00 / no-rd-refine / no-lossless / cbqpoffs=0 / crqpoffs=0 / rc=crf / crf=20.0 / qcomp=0.65 / qpstep=4 / stats-write=0 / stats-read=0 / vbv-maxrate=50000 / vbv-bufsize=50000 / vbv-init=0.9 / crf-max=0.0 / crf-min=0.0 / ipratio=1.40 / pbratio=1.30 / aq-mode=1 / aq-strength=1.00 / no-cutree / zone-count=0 / no-strict-cbr / qg-size=32 / no-rc-grain / qpmax=69 / qpmin=0 / no-const-vbv / sar=1 / overscan=0 / videoformat=5 / range=0 / colorprim=1 / transfer=1 / colormatrix=1 / chromaloc=0 / display-window=0 / cll=0,0 / min-luma=0 / max-luma=1023 / log2-max-poc-lsb=8 / vui-timing-info / vui-hrd-info / slices=1 / no-opt-qp-pps / no-opt-ref-list-length-pps / no-multi-pass-opt-rps / scenecut-bias=0.05 / no-opt-cu-delta-qp / no-aq-motion / no-hdr / no-hdr-opt / no-dhdr10-opt / no-idr-recovery-sei / analysis-reuse-level=5 / scale-factor=0 / refine-intra=0 / refine-inter=0 / refine-mv=1 / refine-ctu-distortion=0 / no-limit-sao / ctu-info=0 / no-lowpass-dct / refine-analysis-type=0 / copy-pic=1 / max-ausize-factor=1.0 / no-dynamic-refine / no-single-sei / no-hevc-aq / no-svt / no-field / qp-adaptation-range=1.00
Default                                  : Yes
Forced                                   : No
Color range                              : Limited
Color primaries                          : BT.709
Transfer characteristics                 : BT.709
Matrix coefficients                      : BT.709

Audio #1
ID                                       : 2
Format                                   : AC-3
Format/Info                              : Audio Coding 3
Commercial name                          : Dolby Digital
Codec ID                                 : A_AC3
Duration                                 : 1 h 23 min
Bit rate mode                            : Constant
Bit rate                                 : 192 kb/s
Channel(s)                               : 2 channels
Channel layout                           : L R
Sampling rate                            : 48.0 kHz
Frame rate                               : 31.250 FPS (1536 SPF)
Compression mode                         : Lossy
Stream size                              : 114 MiB (2%)
Title                                    : / 2.0 Ch / 192 kbps / ПД
Language                                 : Ukrainian
Service kind                             : Complete Main
Default                                  : Yes
Forced                                   : Yes

Audio #2
ID                                       : 3
Format                                   : AC-3
Format/Info                              : Audio Coding 3
Commercial name                          : Dolby Digital
Codec ID                                 : A_AC3
Duration                                 : 1 h 23 min
Bit rate mode                            : Constant
Bit rate                                 : 192 kb/s
Channel(s)                               : 2 channels
Channel layout                           : L R
Sampling rate                            : 48.0 kHz
Frame rate                               : 31.250 FPS (1536 SPF)
Compression mode                         : Lossy
Stream size                              : 114 MiB (2%)
Title                                    : / 2.0 Ch / 192 kbps / БЗ / Клан Кайзоку
Language                                 : Ukrainian
Service kind                             : Complete Main
Default                                  : No
Forced                                   : No

Audio #3
ID                                       : 4
Format                                   : AC-3
Format/Info                              : Audio Coding 3
Commercial name                          : Dolby Digital
Codec ID                                 : A_AC3
Duration                                 : 1 h 23 min
Bit rate mode                            : Constant
Bit rate                                 : 192 kb/s
Channel(s)                               : 2 channels
Channel layout                           : L R
Sampling rate                            : 48.0 kHz
Frame rate                               : 31.250 FPS (1536 SPF)
Compression mode                         : Lossy
Stream size                              : 114 MiB (2%)
Title                                    : / 2.0 Ch / 192 kbps / ОЗ / Slava Rudik
Language                                 : Ukrainian
Service kind                             : Complete Main
Default                                  : No
Forced                                   : No

Audio #4
ID                                       : 5
Format                                   :
Format/Info                              : Digital Theater Systems
Codec ID                                 : A_DTS
Duration                                 : 1 h 23 min
Bit rate mode                            : Constant
Bit rate                                 : 1 509 kb/s
Channel(s)                               : 6 channels
Channel layout                           : C L R Ls Rs LFE
Sampling rate                            : 48.0 kHz
Frame rate                               : 93.750 FPS (512 SPF)
Bit depth                                : 24 bits
Compression mode                         : Lossy
Stream size                              : 896 MiB (18%)
Title                                    : / 5.1 Ch / 1509 kbps / Original
Language                                 : English
Default                                  : No
Forced                                   : No

Text #1
ID                                       : 6
Format                                   : UTF-8
Codec ID                                 : S_TEXT/UTF8
Codec ID/Info                            : UTF-8 Plain Text
Duration                                 : 1 h 22 min
Bit rate                                 : 87 b/s
Count of elements                        : 983
Stream size                              : 52.8 KiB (0%)
Title                                    : Full by MutuLI
Language                                 : Ukrainian
Default                                  : Yes
Forced                                   : No

Text #2
ID                                       : 7
Format                                   : UTF-8
Codec ID                                 : S_TEXT/UTF8
Codec ID/Info                            : UTF-8 Plain Text
Duration                                 : 1 h 22 min
Bit rate                                 : 52 b/s
Count of elements                        : 977
Stream size                              : 31.5 KiB (0%)
Title                                    : Full
Language                                 : English
Default                                  : No
Forced                                   : No

Text #3
ID                                       : 8
Format                                   : UTF-8
Codec ID                                 : S_TEXT/UTF8
Codec ID/Info                            : UTF-8 Plain Text
Duration                                 : 1 h 22 min
Bit rate                                 : 60 b/s
Count of elements                        : 1117
Stream size                              : 36.3 KiB (0%)
Title                                    : SDH
Language                                 : English
Default                                  : No
Forced                                   : No

Menu
00:00:00.000                             : en:Opening
00:03:31.961                             : en:'Oo-De-Lally'
00:09:10.132                             : en:Fortune-Telling Robbers
00:15:09.617                             : en:Bad Times in Nottingham
00:20:57.089                             : en:Skippy's Arrow
00:27:01.536                             : en:Young Love
00:31:22.171                             : en:An Archery Tournament in Nottingham
00:37:40.049                             : en:Let the Tournament Begin!
00:42:00.351                             : en:Off with His Head!
00:48:57.643                             : en:It Seems Like Only Yesterday
00:51:08.982                             : en:'the Phony King of England'
00:55:10.432                             : en:'Not in Nottingham'
01:03:05.198                             : en:The Scaffold
01:05:22.001                             : en:The Rescue
01:20:30.742                             : en:A Happy Ending
Світлини




Дяка пану MutuLI за надані синхронізовані доріжки та субтри.
Також пану sergiyko.5 за купівлю та надання першої доріжки

Джерело: &
Особиста оцінка: 0 - не дивився


Авторський реліз (завантажувати можна без реєстрації)
 Трекер:    Зареєстрований   

Завантажити / скачати мультфільм українською



відео для новачків



 Зареєстрований:   2020-03-04 09:27
 Розмір:   4.85 GB 
 Оцінка мультфільму:   9.9/10 (Голосів: 8)
   
Інші релізи
   Робін Гуд / Robin Hood (1973) 1080p Ukr/Eng | Sub Eng sergiyko.5  1 / 0   10.08 GB   2019-10-19 11:52 
   Робін Гуд / Robin Hood (1973) AVC sergiyko.5  5 / 0   1.48 GB   2019-10-19 11:45 
   Робін Гуд / Robin Hood (1973) 720p Ukr/Eng | Sub Eng sergiyko.5  3 / 0   5 GB   2019-10-18 20:40 
   Робін Гуд / Robin Hood (1973) 720p Ukr/Eng | sub Eng радик  4 / 0   4.11 GB   2018-05-16 14:27 
Anonymous 







2020-03-04 09:27  
Додано укр. субтитри та доріжку від Клан Кайзоку
Ваш часовий пояс: GMT + 2 Години

Нова тема   Відповісти