21 міст / 21 Bridges (2019) 1080p H.265 Ukr/Eng | Sub Eng

Нові коментарі

Нова тема   Відповісти
Автор Повідомлення
Anonymous 







2020-02-11 00:20  
21 міст / 21 Bridges (2019) 1080p H.265 Ukr/Eng | Sub Eng

21 міст / 21 Bridges (2019) 1080p H.265 Ukr/Eng | Sub Eng


Жанр: бойовик, драма, кримінал, трилер
Країна: США
Кінокомпанія: AGBO, Huayi Brothers, MWM Studios
Режисер: Брайан Кірк
Актори: Чедвік Боузман, Сієнна Міллер,Тейлор Кітч, Дж. К. Сіммонс, Кіт Девід, Стівен Джеймс, Крістіан Айзіа

Сюжет:
Знаменитий детектив нью-йоркської поліції стає учасником масштабної операції з полювання на вбивць двох поліцейських. Коли ситуація загострюється, влада вирішує вжити надзвичайних заходів, щоб не дати вбивцям піти з Мангеттена, — вперше в історії перекрити для руху усі 21 міст острова. Тепер, коли Мангеттен заблокований на в'їзд та виїзд, герою доведеться самостійно з'ясувати, хто є хто в цьому місті.

Тривалість: 01:39:56
Якість:

Відео:
кодек: H.265 (HEVC)
розмір кадру: 1920 x 804
бітрейт: 8 283 кб/с
бітова глибина: 10 біт

Увага! Перед завантаженням переконайтесь, що ваш пристрій відтворення (та/або ПЗ) підтримує H.265 (HEVC)

Аудіо # 1:
мова: українська
переклад: професійний дубльований
кодек: AC-3 2.0
бітрейт: 192 кб/с

Аудіо # 2:
мова: англійська
переклад: оригінал
кодек: AC-3 5.1
бітрейт: 640 кб/с

Субтитри # 1-2: (Full, SDH)
мова: англійська
тип: програмні (м'які)
формат: *.srt


Info
Код:
General
Unique ID                                : 196024449692442911400971057255599106704 (0x9378EF8D46FD15B9530CCF3BFA2CEA90)
Complete name                            : 21 Bridges (2019) 1080p H.265 [UKR_ENG] [Hurtom].
Format                                   :
Format version                           : Version 4
File size                                : 6.37 GiB
Duration                                 : 1 h 39 min
Overall bit rate                         : 9 117 kb/s
Movie name                               : 21 міст / 21 Bridges (2019)
Encoded date                             : UTC 2020-02-10 21:49:49
Writing application                      : v20.0.0 ('I Am The Sun') 64-bit
Writing library                          : libebml v1.3.5 + v1.4.8
Cover                                    : Yes
Attachments                              : cover.jpg

Video
ID                                       : 1
Format                                   : HEVC
Format/Info                              : High Efficiency Video Coding
Format profile                           : Main [email protected]@High
Codec ID                                 : V_MPEGH/ISO/HEVC
Duration                                 : 1 h 39 min
Bit rate                                 : 8 283 kb/s
Width                                    : 1 920 pixels
Height                                   : 804 pixels
Display aspect ratio                     : 2.40:1
Frame rate mode                          : Constant
Frame rate                               : 23.976 (24000/1001) FPS
Color space                              : YUV
Chroma subsampling                       : 4:2:0
Bit depth                                : 10 bits
Bits/(Pixel*Frame)                       : 0.224
Stream size                              : 5.78 GiB (91%)
Title                                    : 21 міст / 21 Bridges (2019)
Writing library                          : x265 3.1+7-147fb92c5ed5:[Windows][clang 8.0.0][64 bit] 10bit
Encoding settings                        : cpuid=1111039 / frame-threads=13 / wpp / no-pmode / no-pme / no-psnr / no-ssim / log-level=3 / input-csp=1 / input-res=1920x804 / interlace=0 / total-frames=0 / level-idc=41 / high-tier=1 / uhd-bd=0 / ref=5 / allow-non-conformance / no-repeat-headers / annexb / no-aud / no-hrd / info / hash=0 / no-temporal-layers / open-gop / min-keyint=23 / keyint=240 / gop-lookahead=0 / bframes=8 / b-adapt=2 / b-pyramid / bframe-bias=0 / rc-lookahead=60 / lookahead-slices=4 / scenecut=60 / radl=0 / no-splice / no-intra-refresh / ctu=64 / min-cu-size=8 / rect / amp / max-tu-size=32 / tu-inter-depth=4 / tu-intra-depth=4 / limit-tu=4 / rdoq-level=2 / dynamic-rd=0.00 / no-ssim-rd / signhide / no-tskip / nr-intra=0 / nr-inter=0 / no-constrained-intra / no-strong-intra-smoothing / max-merge=5 / limit-refs=3 / limit-modes / me=3 / subme=7 / merange=57 / temporal-mvp / no-hme / weightp / weightb / no-analyze-src-pics / deblock=-3:-3 / no-sao / no-sao-non-deblock / rd=6 / no-early-skip / no-rskip / no-fast-intra / no-tskip-fast / no-cu-lossless / no-b-intra / no-splitrd-skip / rdpenalty=0 / psy-rd=2.00 / psy-rdoq=1.00 / no-rd-refine / no-lossless / cbqpoffs=0 / crqpoffs=0 / rc=crf / crf=19.0 / qcomp=0.60 / qpstep=4 / stats-write=0 / stats-read=0 / vbv-maxrate=50000 / vbv-bufsize=50000 / vbv-init=0.9 / crf-max=30.0 / crf-min=0.0 / ipratio=1.40 / pbratio=1.30 / aq-mode=2 / aq-strength=1.00 / no-cutree / zone-count=0 / no-strict-cbr / qg-size=32 / no-rc-grain / qpmax=69 / qpmin=0 / no-const-vbv / sar=1 / overscan=0 / videoformat=5 / range=0 / colorprim=1 / transfer=1 / colormatrix=1 / chromaloc=0 / display-window=0cll=0,0 / min-luma=0 / max-luma=1023 / log2-max-poc-lsb=8 / vui-timing-info / vui-hrd-info / slices=1 / no-opt-qp-pps / no-opt-ref-list-length-pps / no-multi-pass-opt-rps / scenecut-bias=0.05 / no-opt-cu-delta-qp / no-aq-motion / no-hdr / no-hdr-opt / no-dhdr10-opt / no-idr-recovery-sei / analysis-reuse-level=5 / scale-factor=0 / refine-intra=0 / refine-inter=0 / refine-mv=0 / refine-ctu-distortion=0 / no-limit-sao / ctu-info=0 / no-lowpass-dct / refine-analysis-type=70 / copy-pic=1 / max-ausize-factor=1.0 / no-dynamic-refine / no-single-sei / no-hevc-aq / no-svt / no-field / qp-adaptation-range=1.00
Language                                 : English
Default                                  : Yes
Forced                                   : No
Color range                              : Limited
Color primaries                          : BT.709
Transfer characteristics                 : BT.709
Matrix coefficients                      : BT.709

Audio #1
ID                                       : 2
Format                                   : AC-3
Format/Info                              : Audio Coding 3
Commercial name                          : Dolby Digital
Codec ID                                 : A_AC3
Duration                                 : 1 h 39 min
Bit rate mode                            : Constant
Bit rate                                 : 192 kb/s
Channel(s)                               : 2 channels
Channel layout                           : L R
Sampling rate                            : 48.0 kHz
Frame rate                               : 31.250 FPS (1536 SPF)
Compression mode                         : Lossy
Stream size                              : 137 MiB (2%)
Title                                    : / 2.0 Ch / 192 kbps / ПД
Language                                 : Ukrainian
Service kind                             : Complete Main
Default                                  : Yes
Forced                                   : Yes

Audio #2
ID                                       : 3
Format                                   : AC-3
Format/Info                              : Audio Coding 3
Commercial name                          : Dolby Digital
Codec ID                                 : A_AC3
Duration                                 : 1 h 39 min
Bit rate mode                            : Constant
Bit rate                                 : 640 kb/s
Channel(s)                               : 6 channels
Channel layout                           : L R C LFE Ls Rs
Sampling rate                            : 48.0 kHz
Frame rate                               : 31.250 FPS (1536 SPF)
Compression mode                         : Lossy
Stream size                              : 458 MiB (7%)
Title                                    : / 5.1 Ch / 640 kbps / Original
Language                                 : English
Service kind                             : Complete Main
Default                                  : No
Forced                                   : No

Text #1
ID                                       : 4
Format                                   : UTF-8
Codec ID                                 : S_TEXT/UTF8
Codec ID/Info                            : UTF-8 Plain Text
Duration                                 : 1 h 29 min
Bit rate                                 : 52 b/s
Count of elements                        : 1116
Stream size                              : 34.5 KiB (0%)
Title                                    : Full
Language                                 : English
Default                                  : No
Forced                                   : No

Text #2
ID                                       : 5
Format                                   : UTF-8
Codec ID                                 : S_TEXT/UTF8
Codec ID/Info                            : UTF-8 Plain Text
Duration                                 : 1 h 30 min
Bit rate                                 : 56 b/s
Count of elements                        : 1249
Stream size                              : 37.6 KiB (0%)
Title                                    : SDH
Language                                 : English
Default                                  : No
Forced                                   : No

Menu
00:00:00.000                             : :Chapter 01
00:03:16.196                             : :Chapter 02
00:07:48.510                             : :Chapter 03
00:11:59.344                             : :Chapter 04
00:16:54.722                             : :Chapter 05
00:22:33.143                             : :Chapter 06
00:30:54.561                             : :Chapter 07
00:34:50.046                             : :Chapter 08
00:40:16.414                             : :Chapter 09
00:44:39.719                             : :Chapter 10
00:50:54.718                             : :Chapter 11
00:54:04.408                             : :Chapter 12
00:58:52.320                             : :Chapter 13
01:02:08.600                             : :Chapter 14
01:06:19.601                             : :Chapter 15
01:10:27.557                             : :Chapter 16
01:16:19.617                             : :Chapter 17
01:19:19.755                             : :Chapter 18
01:25:15.110                             : :Chapter 19
01:32:34.382                             : :Chapter 20
Світлини




Джерело: &
Особиста оцінка: 0 - не дивився


 Трекер:    Зареєстрований   

Завантажити / скачати фільм українською



відео для новачків



 Зареєстрований:   2020-02-11 00:20
 Розмір:   6.37 GB 
 Оцінка фільму:   9.1/10 (Голосів: 9)
   
Інші релізи
   21 міст / 21 Bridges (2019) Remux 1080p Ukr/Eng | Sub Eng antik_2008  30 / 0   24.88 GB   2020-02-09 23:36 
   21 міст / 21 Bridges (2019) AVC Ukr/Eng | Sub Eng 11FrYkT  82 / 3   1.72 GB   2020-02-09 23:17 
   21 міст / 21 Bridges (2019) 720p Ukr/Eng | Sub Eng antik_2008  36 / 1   4.39 GB   2020-02-09 23:16 
   21 міст / 21 Bridges (2019) 1080p Ukr/Eng | Sub Eng antik_2008  51 / 2   10.72 GB   2020-02-09 23:15 
   21 міст / 21 Bridges (2019) Ukr/Eng antik_2008  72 / 2   1.95 GB   2020-02-09 23:13 
   21 міст / 21 Bridges (2019) UHD 4K 2160p HDR H.265 Ukr/Eng | Sub Eng antik_2008  10 / 1   17.63 GB   2020-02-08 23:19 
waldi-hurtom 
VIP


З нами з: 07.10.12
Востаннє: 25.02.20
Повідомлень: 1093

2020-02-18 21:24  
Непоганий бойовик, але не шедевр. Забагато крові та екшну, краще пригасити пивом. 7 з 10.
Ваш часовий пояс: GMT + 2 Години

Нова тема   Відповісти