Паразити / Parasite / Gisaengchung (2019) UHD 4K 2160p HDR H.265 Ukr/Kor | Sub Eng

Нові коментарі

Нова тема   Відповісти
Автор Повідомлення
Anonymous 







2020-02-10 22:03  


Паразити / Parasite / Gisaengchung (2019) UHD 4K 2160p HDR H.265 Ukr/Kor | Sub Eng



«Знайди зловмисника»



Паразити / Parasite / Gisaengchung (2019) UHD 4K 2160p HDR H.265 Ukr/Kor | Sub Eng



Жанр: драма, трагікомедія, трилер
Країна: Південна Корея


Тop 250 #21 | - 96 | - 99% | |
------------------ (станом на 12.02.2020)



Золота пальмова гілка Каннського кінофестивалю, Золотий Глобус, 2 премії Британської кіноакадемії та 4 Оскари


Детальніше про основні нагороди та номінації:
Каннський кінофестиваль - 2019

Переможець (1):

Головна нагорода - Золота пальмова гілка

Оскар - 2020 (за 2019 рік)

Переможець (4):

Найкращий фільм

Найкращий міжнародний художній фільм

Найкраща режисура - Пон Джун Хо / Bong Joon Ho

Найкращий оригінальний сценарій - Пон Джун Хо / Bong Joon Ho та Хан Джин Вон / Han Jin-won

Номінації (2):

Найкращий монтаж

Найкраща робота художника-постановника

Золотий Глобус - 2020 (за 2019 рік)

Переможець (1):

Найкращий фільм іноземною мовою

Номінації (2):

Найкращий режисер - Пон Джун Хо / Bong Joon Ho

Найкращий сценарій - Пон Джун Хо / Bong Joon Ho

Британська академія телебачення та кіномистецтва - Премія BAFTA - 2020 (за 2019 рік)

Переможець (2):

Найкращий неангломовний фільм

Найкращий оригінальний сценарій - Пон Джун Хо / Bong Joon Ho та Хан Джин Вон / Han Jin-won

Номінації (2):

Найкращий фільм

Найкраща режисер - Пон Джун Хо / Bong Joon Ho


Кінокомпанія: CJ Entertainment
Режисер: Пон Джун Хо / Bong Joon Ho
Актори: Сон Кан Хо / Song Kang-ho, Лі Сон Гюн / Lee Sun-kyun, Чо Йо Чон / Cho Yeo-jeong, Чхве У Сік / Choi Woo-shik, Пак Со Дам / Park So-dam, Чан Хє Джин / Chang Hyae-jin, Лі Чон Ин / Lee Jung-eun, Пак Мьон Хун / Park Myung-hoon, Чон Чі Со / Jeong Ji-so та інші

Сюжет:
У сім'ї чотирьох безробітних похмурі життєві перспективи. Ситуація змінюється, коли старшому синові пропонують високооплачуваний підробіток репетитором. З допомогою сестри він робить фальшиві документи про освіту та приходить до розкішного маєтку заможного бізнесмена. Справивши гарне враження, старший син дізнається про ще одну відкриту вакансію, і у нього з'являється дуже незвичайний план з працевлаштування сестри.



Рейтинг MPAA: R - особам до 17 років обов'язкова присутність батьків або дорослого опікуна
Вікова категорія: 16+


Тривалість: 02:12:00
Якість: UHD 4K 2160p

Відео:
кодек: H.265 (HEVC)
розмір кадру: 3840x1608
бітрейт: 24400 кб/с
бітова глибина: 10 біт

Аудіо # 1:
мова: українська
переклад: багатоголосий закадровий
кодек: 2.0 (стерео)
бітрейт: 192 кб/с

Аудіо # 2:
мова: корейська
переклад: оригінал
кодек: 5.1
бітрейт: 448 кб/с

Аудіо # 3:
мова: корейська
переклад: оригінал
кодек: TrueHD + Atmos 7.1
бітрейт: 4042 кб/с

Субтитри (Forced):
мова: українська
тип: програмні (м'які)
формат: *.srt

Субтитри (Full):
мова: англійська
тип: програмні (м'які)
формат: *.srt

Info
Код:
General
Complete name                            : Gisaengchung (2019) UHD 4K 2160p HDR H.265 [ukr,eng] [ViDeO_Hurtom].
Format                                   :
Format version                           : Version 4
File size                                : 26.9 GiB
Duration                                 : 2 h 12 min
Overall bit rate mode                    : Variable
Overall bit rate                         : 29.1 Mb/s
Movie name                               : Паразити / Parasite / Gisaengchung (2019)
Encoded date                             : UTC 2020-02-10 16:20:17
Writing application                      : v30.1.0 ('Forever And More') 64-bit
Writing library                          : libebml v1.3.6 + v1.4.9
Cover                                    : Yes
Attachments                              : cover.jpg / cover.png

Video
ID                                       : 1
Format                                   : HEVC
Format/Info                              : High Efficiency Video Coding
Commercial name                          : HDR10
Format profile                           : Main [email protected]@High
Codec ID                                 : V_MPEGH/ISO/HEVC
Duration                                 : 2 h 11 min
Bit rate                                 : 24.4 Mb/s
Width                                    : 3 840 pixels
Height                                   : 1 608 pixels
Display aspect ratio                     : 2.40:1
Frame rate mode                          : Constant
Frame rate                               : 23.976 (24000/1001) FPS
Color space                              : YUV
Chroma subsampling                       : 4:2:0 (Type 2)
Bit depth                                : 10 bits
Bits/(Pixel*Frame)                       : 0.165
Stream size                              : 22.5 GiB (84%)
Title                                    : PARASITE_2019_WEBRip_2160p_HDR_BLUEBIRD
Writing library                          : x265 3.2+31-6b348d5b56d8:[Windows][GCC 9.2.0][64 bit] 10bit
Encoding settings                        : cpuid=1111039 / frame-threads=4 / numa-pools=28 / wpp / no-pmode / no-pme / no-psnr / no-ssim / log-level=2 / input-csp=1 / input-res=3840x1608 / interlace=0 / total-frames=189723 / level-idc=51 / high-tier=1 / uhd-bd=0 / ref=4 / no-allow-non-conformance / repeat-headers / annexb / aud / hrd / info / hash=0 / no-temporal-layers / no-open-gop / min-keyint=24 / keyint=240 / gop-lookahead=0 / bframes=4 / b-adapt=2 / b-pyramid / bframe-bias=0 / rc-lookahead=25 / lookahead-slices=4 / scenecut=40 / hist-scenecut=0 / radl=0 / no-splice / no-intra-refresh / ctu=64 / min-cu-size=8 / rect / no-amp / max-tu-size=32 / tu-inter-depth=1 / tu-intra-depth=1 / limit-tu=0 / rdoq-level=2 / dynamic-rd=0.00 / no-ssim-rd / signhide / no-tskip / nr-intra=0 / nr-inter=0 / no-constrained-intra / no-strong-intra-smoothing / max-merge=3 / limit-refs=3 / limit-modes / me=3 / subme=3 / merange=57 / temporal-mvp / no-frame-dup / no-hme / weightp / no-weightb / no-analyze-src-pics / deblock=-2:-2 / no-sao / no-sao-non-deblock / rd=4 / selective-sao=0 / no-early-skip / rskip / no-fast-intra / no-tskip-fast / no-cu-lossless / no-b-intra / no-splitrd-skip / rdpenalty=0 / psy-rd=2.00 / psy-rdoq=1.00 / no-rd-refine / no-lossless / cbqpoffs=0 / crqpoffs=0 / rc=crf / crf=17.0 / qcomp=0.60 / qpstep=4 / stats-write=0 / stats-read=0 / vbv-maxrate=160000 / vbv-bufsize=160000 / vbv-init=0.9 / crf-max=0.0 / crf-min=0.0 / ipratio=1.40 / pbratio=1.30 / aq-mode=2 / aq-strength=1.00 / cutree / zone-count=0 / no-strict-cbr / qg-size=32 / no-rc-grain / qpmax=69 / qpmin=0 / no-const-vbv / sar=0 / overscan=0 / videoformat=5 / range=0 / colorprim=9 / transfer=16 / colormatrix=9 / chromaloc=1 / chromaloc-top=2 / chromaloc-bottom=2 / display-window=0 / master-display=G(8500,39850)B(6550,2300)R(35400,14600)WP(15635,16450)L(10000000,50) / cll=1000,248 / min-luma=0 / max-luma=1023 / log2-max-poc-lsb=8 / vui-timing-info / vui-hrd-info / slices=1 / no-opt-qp-pps / no-opt-ref-list-length-pps / no-multi-pass-opt-rps / scenecut-bias=0.05 / hist-threshold=0.01 / no-opt-cu-delta-qp / no-aq-motion / hdr10 / hdr10-opt / no-dhdr10-opt / no-idr-recovery-sei / analysis-reuse-level=5 / scale-factor=0 / refine-intra=0 / refine-inter=0 / refine-mv=1 / refine-ctu-distortion=0 / no-limit-sao / ctu-info=0 / no-lowpass-dct / refine-analysis-type=0 / copy-pic=1 / max-ausize-factor=1.0 / no-dynamic-refine / no-single-sei / no-hevc-aq / no-svt / no-field / qp-adaptation-range=1.00 / no-scenecut-aware-qp
Default                                  : Yes
Forced                                   : No
Color range                              : Limited
Color primaries                          : BT.2020
Transfer characteristics                 : PQ
Matrix coefficients                      : BT.2020 non-constant
Mastering display color primaries        : BT.2020
Mastering display luminance              : min: 0.0050 cd/m2, max: 1000 cd/m2
Maximum Content Light Level              : 1000 cd/m2
Maximum Frame-Average Light Level        : 248 cd/m2

Audio #1
ID                                       : 2
Format                                   : AC-3
Format/Info                              : Audio Coding 3
Commercial name                          : Dolby Digital
Codec ID                                 : A_AC3
Duration                                 : 2 h 12 min
Bit rate mode                            : Constant
Bit rate                                 : 192 kb/s
Channel(s)                               : 2 channels
Channel layout                           : L R
Sampling rate                            : 48.0 kHz
Frame rate                               : 31.250 FPS (1536 SPF)
Bit depth                                : 16 bits
Compression mode                         : Lossy
Stream size                              : 181 MiB (1%)
Title                                    : , 2 ch, 192 Кбт/с
Language                                 : Ukrainian
Service kind                             : Complete Main
Default                                  : Yes
Forced                                   : No

Audio #2
ID                                       : 3
Format                                   : AC-3
Format/Info                              : Audio Coding 3
Commercial name                          : Dolby Digital
Codec ID                                 : A_AC3
Duration                                 : 2 h 12 min
Bit rate mode                            : Constant
Bit rate                                 : 448 kb/s
Channel(s)                               : 6 channels
Channel layout                           : L R C LFE Ls Rs
Sampling rate                            : 48.0 kHz
Frame rate                               : 31.250 FPS (1536 SPF)
Bit depth                                : 16 bits
Compression mode                         : Lossy
Stream size                              : 423 MiB (2%)
Title                                    : , 6 ch, 448 Кбт/с
Language                                 : Korean
Service kind                             : Complete Main
Default                                  : No
Forced                                   : No

Audio #3
ID                                       : 4
Format                                   : MLP FBA 16-ch
Format/Info                              : Meridian Lossless Packing FBA with 16-channel presentation
Commercial name                          : Dolby TrueHD with Dolby Atmos
Codec ID                                 : A_TRUEHD
Duration                                 : 2 h 12 min
Bit rate mode                            : Variable
Bit rate                                 : 4 042 kb/s
Maximum bit rate                         : 6 816 kb/s
Channel(s)                               : 8 channels
Channel layout                           : L R C LFE Ls Rs Lb Rb
Sampling rate                            : 48.0 kHz
Frame rate                               : 1 200.000 FPS (40 SPF)
Compression mode                         : Lossless
Stream size                              : 3.73 GiB (14%)
Title                                    : TrueHD + Atmos, 8 ch, 4042 Кбт/с
Language                                 : Korean
Default                                  : No
Forced                                   : No
Number of dynamic objects                : 11
Bed channel count                        : 1 channel
Bed channel configuration                : LFE

Text #1
ID                                       : 5
Format                                   : UTF-8
Codec ID                                 : S_TEXT/UTF8
Codec ID/Info                            : UTF-8 Plain Text
Duration                                 : 1 h 51 min
Bit rate                                 : 0 b/s
Count of elements                        : 6
Stream size                              : 450 Bytes (0%)
Title                                    : Forced
Language                                 : Ukrainian
Default                                  : Yes
Forced                                   : No

Text #2
ID                                       : 6
Format                                   : UTF-8
Codec ID                                 : S_TEXT/UTF8
Codec ID/Info                            : UTF-8 Plain Text
Duration                                 : 2 h 5 min
Bit rate                                 : 53 b/s
Count of elements                        : 1645
Stream size                              : 49.5 KiB (0%)
Title                                    : Full
Language                                 : English
Default                                  : No
Forced                                   : No

Menu
00:00:00.000                             : :Chapitre 01
00:05:44.803                             : :Chapitre 02
00:12:16.611                             : :Chapitre 03
00:20:35.484                             : :Chapitre 04
00:29:21.927                             : :Chapitre 05
00:37:05.348                             : :Chapitre 06
00:46:19.944                             : :Chapitre 07
00:53:52.980                             : :Chapitre 08
01:02:55.647                             : :Chapitre 09
01:12:10.243                             : :Chapitre 10
01:23:25.834                             : :Chapitre 11
01:32:19.659                             : :Chapitre 12
01:41:22.285                             : :Chapitre 13
01:48:21.912                             : :Chapitre 14
01:56:07.502                             : :Chapitre 15
02:07:06.744                             : :Chapitre 16

Скріншоти




Джерело:
Особиста оцінка: 0 - не дивився


Паразити / Parasite / Gisaengchung (2019) UHD 4K 2160p HDR H.265 Ukr/Kor | Sub Eng




 Трекер:    Зареєстрований   

Завантажити / скачати фільм українською



відео для новачків



 Зареєстрований:   2020-02-10 22:03
 Розмір:   26.86 GB 
 Оцінка фільму:   8.6/10 (Голосів: 8)
   
Інші релізи
   Паразити / Parasite / Gisaengchung (2019) AVC Ukr/Kor | Sub Eng 11FrYkT  307 / 6   2.17 GB   2020-02-05 23:40 
   Паразити / Parasite / Gisaengchung (2019) Remux 1080p Ukr/Kor | Sub Eng antik_2008  62 / 2   31.03 GB   2020-02-05 13:14 
   Паразити / Parasite / Gisaengchung (2019) 720p Ukr/Kor | Sub Eng/Fre SurFutur  176 / 3   4.71 GB   2020-02-05 04:39 
   Паразити / Parasite / Gisaengchung (2019) Ukr/Kor | Sub Eng antik_2008  87 / 1   2.11 GB   2020-02-05 01:34 
   Паразити / Parasite / Gisaengchung (2019) 1080p Ukr/Kor | Sub Eng antik_2008  127 / 1   14.67 GB   2020-02-05 00:37 
   Паразити / Parasite / Gisaengchung (2019) eneyida.tv  146 / 1   1.46 GB   2020-02-04 23:02 
Neolo 
Свій


З нами з: 13.11.10
Востаннє: 25.02.20
Повідомлень: 99

2020-02-10 22:43  
Ну і де тут Англ доріжка?? Чого обманюєте?
Ваш часовий пояс: GMT + 2 Години

Нова тема   Відповісти