Віллі та круті тачки / Wheely (2018) AVC

Нові коментарі

Нова тема   Відповісти
Автор Повідомлення
sergiyko.5 
Забанено
Забанено


З нами з: 25.02.16
Востаннє: 29.10.20
Повідомлень: 3651

2020-02-10 14:11  
Віллі та круті тачки / Wheely (2018) AVC


Віллі та круті тачки / Wheely (2018) AVC

Жанр: пригоди, комедія, сімейний
Країна: Малайзія
Кінокомпанія: KRU Studios, Kartun Studios
Режисер: Ісрі Абдул Халім

Сюжет:
Віллі - тричі чемпіон з вуличних перегонів у Гаскет-Сіті, готується до головного випробування в його житті. Весь світ у його колесі! Але в вирішальному заїзді він не впорався з керуванням і впав у глибоку ріку. Віллі мав стати звичайним таксистом і лише іноді змагається зі звичайними міськими машинами. Та після неочікуваного зіткнення з прекрасною італійською машинкою Беллой він починає розуміти, що окрім швидкості в житті є більш важливі речі...




Тривалість: 01:30:13
Якість:

Відео: кодек: h264 розмір кадру: 1024 х 576 бітрейт: 1100 кб/с
Аудіо: мова: українська переклад: багатоголосий закадровий кодек: 2.0 бітрейт: 192 кб/с
Озвучення:
Про файл:
General
Unique ID : 204108346455912798927222958318055916729 (0x998DD66F2C8B8B5716A61120354D04B9)
Complete name : D:\Documents\Torrents\MULTSER_2\Wheely.2018..
Format :
Format version : Version 4
File size : 864 MiB
Duration : 1 h 30 min
Overall bit rate : 1 339 kb/s
Movie name : Wheely 2018 rip by sergiyko
Encoded date : UTC 2020-02-10 12:07:03
Writing application : v42.0.0 ('Overtime') 64-bit
Writing library : libebml v1.3.10 + v1.5.2

Video
ID : 1
Format : AVC
Format/Info : Advanced Video Codec
Format profile : [email protected]
Format settings : CABAC / 7 Ref Frames
Format settings, CABAC : Yes
Format settings, Reference : 7 frames
Codec ID : V_MPEG4/ISO/AVC
Duration : 1 h 30 min
Bit rate : 1 146 kb/s
Width : 1 024 pixels
Height : 576 pixels
Display aspect ratio : 16:9
Frame rate mode : Constant
Frame rate : 24.000 FPS
Color space : YUV
Chroma subsampling : 4:2:0
Bit depth : 8 bits
Scan type : Progressive
Bits/(Pixel*Frame) : 0.081
Stream size : 739 MiB (86%)
Title : Wheely 2018
Writing library : core 157 r2970 5493be8
Encoding settings : cabac=1 / ref=7 / deblock=1:0:0 / analyse=0x3:0x133 / me=umh / subme=10 / psy=1 / psy_rd=1.00:0.00 / mixed_ref=1 / me_range=24 / chroma_me=1 / trellis=2 / 8x8dct=1 / cqm=0 / deadzone=21,11 / fast_pskip=1 / chroma_qp_offset=-2 / threads=18 / lookahead_threads=3 / sliced_threads=0 / nr=0 / decimate=1 / interlaced=0 / bluray_compat=0 / constrained_intra=0 / bframes=8 / b_pyramid=2 / b_adapt=2 / b_bias=0 / direct=3 / weightb=1 / open_gop=0 / weightp=2 / keyint=250 / keyint_min=24 / scenecut=40 / intra_refresh=0 / rc_lookahead=60 / rc=crf / mbtree=1 / crf=20.0 / qcomp=0.60 / qpmin=0 / qpmax=69 / qpstep=4 / ip_ratio=1.40 / aq=1:1.00
Language : English
Default : Yes
Forced : No

Audio
ID : 2
Format : AC-3
Format/Info : Audio Coding 3
Commercial name : Dolby Digital
Codec ID : A_AC3
Duration : 1 h 29 min
Bit rate mode : Constant
Bit rate : 192 kb/s
Channel(s) : 2 channels
Channel layout : L R
Sampling rate : 48.0 kHz
Frame rate : 31.250 FPS (1536 SPF)
Compression mode : Lossy
Stream size : 123 MiB (14%)
Language : Ukrainian
Service kind : Complete Main
Default : Yes
Forced : No

Menu
00:00:00.000 : :00:00:00.000
00:08:53.000 : :00:08:53.000
00:15:26.375 : :00:15:26.375
00:21:17.708 : :00:21:17.708
00:28:27.208 : :00:28:27.208
00:36:49.042 : :00:36:49.042
00:45:39.500 : :00:45:39.500
00:53:42.958 : :00:53:42.958
01:00:29.500 : :01:00:29.500
01:07:09.125 : :01:07:09.125
01:18:10.000 : :01:18:10.000
01:23:56.375 : :01:23:56.375
Скріншоти:


Запис/зведення: sergiyko


 Трекер:    Зареєстрований   

Завантажити / скачати мультфільм українською



відео для новачків



 Зареєстрований:   2020-02-10 14:11
 Розмір:   864 MB 
 Оцінка мультфільму:   9.7/10 (Голосів: 15)
   
Інші релізи
   Віллі та круті тачки / Wheely (2018) 1080p Ukr/Eng sergiyko.5  9 / 0   5.59 GB   2020-02-09 13:47 
jaroslove 
Свій


З нами з: 02.09.11
Востаннє: 30.10.20
Повідомлень: 133

2020-10-14 14:59  
Щиро дякую за реліз!
Ваш часовий пояс: GMT + 2 Години

Нова тема   Відповісти